img image001 image001 image001 image001 image001 image001 image001 image001 image001 image001 image001 image001 image001 image001 image001

Planets Sun Sun Sun
Статистика раздачи
Автор: Nickolas3434 | Размер: 1.77 ГБ | Добавлен: 31 янв 2016
Раздают: 271    Качают: 11
Скачать торрент
Скачать торрент
Описание торрента

СообщениеДобавлено: 31 янв 2016 


Информация о фильме
Название: Бумажки
Год выхода: 2015
Жанр: Мультсериал, детский, семейный, приключения
Страна: Россия, Паровоз
Продолжительность: 27 x ~ 00:05:30
Перевод: не требуется
Режиссер: Алексей Миронов, Артур Толстобров, Кирилл Кравченко,
В ролях: Андрей Рожков
О фильме:
Новый обучающий анимационный сериал для детей, рассказывающий о приключениях бумажных героев в мире, который тоже целиком состоит из бумаги. Мультфильм учит детей доброте и в нём есть практичные вставки, где показано как сделать из бумаги и клея персонажей сериала. Задумка авторов состоит в том, чтобы помочь творческому и умственному развитию малышей.
Доп. информация: премьера (РФ) - 21 марта 2015, «Мульт в кино»

Качество: WEBRip 720p
Видео: MPEG-4-AVC, High@L3.1, 1280x720, 25.000 fps, 1 841 Kbps
Звук: AAC-LC 2.0, 192 Kbps, 44.1 KHz
Субтитры: нет
Семпл
01. Заяц или кот
02. С днем рождения, птенчики
03. Игрушка для Зюйд-ВестаЗюйд-Вестом
04. Лучший изобретатель
05. На высоте
06. Букет для королевы
07. Под крышей дома
08. Королева хочет домой
09. Пикник в обеденное время
10. Пришелец с Фольгундии
11. Полезное Насекомое
12. Снова праздник!
13. Подвиг капитана Тюка
14. Новый сосед
15. Живые цветы
16. Знакомый незнакомец
17. За бумажным морем
18. Приходите на концерт
19. Розовая клумба
20. Звёздная ночь
21. А был ли птенчик
22. Крокодиловы слезы
23. Удачный кадр
24. Сокровища бумажной пещеры
25. Серенький волчок
26. Перевернутая история
27. Дом с привидениями

06. Букет для королевы. 720p.-merci-.mp4
Format : MPEG-4
Format profile : Base Media / Version 2
Codec ID : mp42
File size : 80.2 MiB
Duration : 5mn 30s
Overall bit rate mode : Variable
Overall bit rate : 2 035 Kbps
Encoded date : UTC 2015-08-10 17:36:05
Tagged date : UTC 2015-08-10 17:36:05
gsst : 0
gstd : 330488
gssd : BADC23AC8HM1440420867086494
gshh : r8---sn-n8v7lnel.googlevideo.com
Video
ID : 1
Format : AVC
Format/Info : Advanced Video Codec
Format profile : High@L3.1
Format settings, CABAC : Yes
Format settings, ReFrames : 1 frame
Codec ID : avc1
Codec ID/Info : Advanced Video Coding
Duration : 5mn 30s
Bit rate : 1 841 Kbps
Maximum bit rate : 4 122 Kbps
Width : 1 280 pixels
Height : 720 pixels
Display aspect ratio : 16:9
Frame rate mode : Constant
Frame rate : 25.000 fps
Color space : YUV
Chroma subsampling : 4:2:0
Bit depth : 8 bits
Scan type : Progressive
Bits/(Pixel*Frame) : 0.080
Stream size : 72.5 MiB (90%)
Tagged date : UTC 2015-08-10 17:36:07
Audio
ID : 2
Format : AAC
Format/Info : Advanced Audio Codec
Format profile : LC
Codec ID : 40
Duration : 5mn 30s
Bit rate mode : Variable
Bit rate : 192 Kbps
Maximum bit rate : 202 Kbps
Channel(s) : 2 channels
Channel positions : Front: L R
Sampling rate : 44.1 KHz
Compression mode : Lossy
Stream size : 7.56 MiB (9%)
Title : IsoMedia File Produced by Google, 5-11-2011
Language : English
Encoded date : UTC 2015-08-10 17:36:07
Tagged date : UTC 2015-08-10 17:36:07



Релиз от: -merci-



   Похожие торренты   Торрент   Размер 
В этой теме нет новых непрочитанных сообщений. Бумажки [01-31] (2015) WEBRip 720p от -merci-

68 | 25

2.05 ГБ

В этой теме нет новых непрочитанных сообщений. Бумажки [01-28] (2015) WEBRip 720p от -merci-

122 | 4

1.84 ГБ

В этой теме нет новых непрочитанных сообщений. Бумажки [01-30] (2015) WEBRip 720p от -merci-

101 | 8

1.98 ГБ

В этой теме нет новых непрочитанных сообщений. Бумажки [01-31] (2015) WEBRip от -merci-

33 | 8

2.15 ГБ

В этой теме нет новых непрочитанных сообщений. Бумажки [01-32] (2015) WEB-DLRip 720p от -merci-

265 | 49

2.12 ГБ

В этой теме нет новых непрочитанных сообщений. Бумажки [01-32] (2015) WEB-DLRip от -merci-

95 | 5

2.22 ГБ

В этой теме нет новых непрочитанных сообщений. Малышарики [01-15 из ?] (2015) WEBRip 720p от -merci-

420 | 10

639.33 МБ




Вы не можете начинать темы
Вы не можете отвечать на сообщения
Вы не можете редактировать свои сообщения
Вы не можете удалять свои сообщения
Вы не можете добавлять вложения

Перейти:  
Для Мосгорсуда, Роскомнадзора и рекламодателей: mosgorsud-torrent[собачка]yandex.ru
 Вход
ppkBB3cker v.2 © 2008-2014 @ PPK
[ Time : 0.022s | 14 Queries | GZIP : On ]

Торрент трекер RUTOR.IN, Не можете зайти на rutor.org? Какой новый адрес рутор? Какое зеркало рутор? Не работает rutor.org и зеркала? Тогда наш торрент специально для вас. Rutor.in неофициальное зеркало rutor. В случае если у Вас заблокирован rutor или вдруг Вы не можете на него зайти, то Вы без труда сможете скачать бесплатно и без рекламы последние новинки кино, игр, сериалов и прочего у нас, на Rutor.in. Не нужно использовать прокси, чтобы зайти на рутор, достаточно воспользоваться нашим ресурсом. Все новые фильмы, игры, сериалы, книги и музыка за 2013 и 2014 годы через торрент бесплатно. Скачивайте фильмы в хорошем качестве, игры для пк, xbox, playstation без регистрации. У нас вы найдете новые Зарубежные сериалы и Русские сериалы 2013, 2014, 2015 годов. Оставайтесь с нами, качайте любимые фильмы, игры, сериалы, книги и музыку.