img image001 image001 image001 image001 image001 image001 image001 image001 image001 image001 image001 image001 image001 image001 image001

Planets Sun Sun Sun
Статистика раздачи
Автор: Nickolas3434 | Размер: 4.22 ГБ | Добавлен: 31 янв 2016
Раздают: 79    Качают: 25
Скачать торрент
Скачать торрент
Описание торрента

СообщениеДобавлено: 31 янв 2016 


Информация о фильме
Название: Котики, вперёд!
Год выхода: 2012-2015
Жанр: Мультсериал, детский, обучающий, познавательный
Страна: Россия, студия "Toonbox"
Продолжительность: 32 х ~ 00:05:03, 9 х ~ 00:02:52
Перевод: не требуется
Режиссер: Владимир Пономарёв
В ролях: Слава Кагарманов, Алиса Ландер, Олег Щербинин, Юлия Яблонская, Джейкоб Клеман, Люси Джексон
О фильме:
Котя и Катя — два маленьких котенка, брат и сестра. Котя — умный и рассудительный, а маленькая Катя — милая непоседа. Они обожают чудеса и приключения, а помогает им в этом коробка с игрушками, в которой можно найти все что угодно. Котя и Катя отправляются в чудесные путешествия, используя свой девиз «Котики, вперед!», но всегда возвращаются домой, к любимым и любящим родителям.
Доп. информация:
Семпл / Официальный сайт
Файл
Кодек: h.264
Качество: WEB-DL 720p
Видео: MPEG-4 AVC,1280x720(16:9), 25.000 fps ~ 3002 Kbps,
Звук: AC3, 2.0, 192 Kbps
Субтитры: нет
1 сезон:
01. Прыг-да-скок, черничный пирог
02. Злючка-колючка
03. Слонокот
04. Пора в горы
05. Большие гонки
06. Торт для принцессы
07. Мяу-мяу экспресс
08. Главное - подготовка!
09. Фокус - Покус
10. Фу-ты ну-ты, не будь занудой
11. Соврёшь - пропадёшь!
12. Водолазы
13. Королевство сладостей
14. Сокровища острова Попугая
15. Танцуют все!
16. Большой букет
2 сезон:
17. Хочешь кататься, умей дождаться
18. Песенка из космоса
19. Слезами горю не поможешь
20. Пляж мыльных пузырей
21. Как стать пожарным
22. Весёлые доктора
23. Делись и больше не дерись!
24. Сладкий домик
25. Кто похитил сокровища
26. Не бросай, как попало!
27. Звездопад желаний
28. Приключения в аквапарке
29. Оставайся на месте!
30. Играй честно!
31. Самый главный начальник
32. Так не договаривались!
==================
Бонусы: Раскраска
001. Строительные машины
002. Летательные аппараты
003. Динозавры и другие древние существа
004. Корабль
005. Художники
006. Сырная гора
007. Слонокот
008. Большая Гонка
009. Торт для принцессы

21. Как стать пожарным. WEB-DL.720p.-merci-.mkv
Format : Matroska
Format version : Version 2
File size : 118 MiB
Duration : 5mn 2s
Overall bit rate : 3 258 Kbps
Movie name : Котики, вперед! / 2013-2015 / - merci -
Encoded date : UTC 2015-08-03 05:13:30
Writing application : mkvmerge v5.8.0 ('No Sleep / Pillow') built on Sep 2 2012 15:37:04
Writing library : libebml v1.2.3 + libmatroska v1.3.0
Video
ID : 1
Format : AVC
Format/Info : Advanced Video Codec
Format profile : High@L3.1
Format settings, CABAC : Yes
Format settings, ReFrames : 4 frames
Codec ID : V_MPEG4/ISO/AVC
Duration : 5mn 2s
Bit rate : 3 002 Kbps
Width : 1 280 pixels
Height : 720 pixels
Display aspect ratio : 16:9
Frame rate mode : Constant
Frame rate : 25.000 fps
Color space : YUV
Chroma subsampling : 4:2:0
Bit depth : 8 bits
Scan type : Progressive
Bits/(Pixel*Frame) : 0.130
Stream size : 108 MiB (92%)
Title : 21. Как стать пожарным. WEB-DL.720p.x264.-merci-
Language : Russian
Default : Yes
Forced : No
Color range : Limited
Color primaries : BT.709
Transfer characteristics : BT.709
Matrix coefficients : BT.709
Audio
ID : 2
Format : AC-3
Format/Info : Audio Coding 3
Mode extension : CM (complete main)
Format settings, Endianness : Big
Codec ID : A_AC3
Duration : 5mn 2s
Bit rate mode : Constant
Bit rate : 192 Kbps
Channel(s) : 2 channels
Channel positions : Front: L R
Sampling rate : 48.0 KHz
Compression mode : Lossy
Stream size : 6.93 MiB (6%)
Title : rus
Language : Russian
Default : Yes
Forced : No



Релиз от: -merci-



   Похожие торренты   Торрент   Размер 
В этой теме нет новых непрочитанных сообщений. Котики, вперёд! [01-16,02-16] (2012-2015) WEB-DLRip от -merci-

515 | 84

1.83 ГБ

В этой теме нет новых непрочитанных сообщений. Котики, вперёд! [01-16,02-16] (2012-2015) WEB-DL 1080p от -merci-

431 | 38

5.57 ГБ

В этой теме нет новых непрочитанных сообщений. Котики, вперед! [01-16 из 52] (2013-2015) WEB-DL 1080p

3174 | 748

3.47 ГБ

В этой теме нет новых непрочитанных сообщений. Котики, вперёд! [01-08] (2014) WEBDLRip от MediaClub

512 | 26

439.99 МБ

В этой теме нет новых непрочитанных сообщений. Паровозик Тишка [01-97 из ?] (2012-2015) WEB-DL 720p от -merci-

28 | 8

8.74 ГБ

В этой теме нет новых непрочитанных сообщений. Паровозик Тишка [01-97 из ?] (2012-2015) WEB-DL 720p от -merci-

14 | 33

8.15 ГБ

В этой теме нет новых непрочитанных сообщений. Алиса знает, что делать! [s01+бонусы] (2012-2015) Web-DL 720p от -merci-

108 | 33

18.89 ГБ




Вы не можете начинать темы
Вы не можете отвечать на сообщения
Вы не можете редактировать свои сообщения
Вы не можете удалять свои сообщения
Вы не можете добавлять вложения

Перейти:  
Для Мосгорсуда, Роскомнадзора и рекламодателей: mosgorsud-torrent[собачка]yandex.ru
 Вход
ppkBB3cker v.2 © 2008-2014 @ PPK
[ Time : 0.021s | 14 Queries | GZIP : Off ]

Торрент трекер RUTOR.IN, Не можете зайти на rutor.org? Какой новый адрес рутор? Какое зеркало рутор? Не работает rutor.org и зеркала? Тогда наш торрент специально для вас. Rutor.in неофициальное зеркало rutor. В случае если у Вас заблокирован rutor или вдруг Вы не можете на него зайти, то Вы без труда сможете скачать бесплатно и без рекламы последние новинки кино, игр, сериалов и прочего у нас, на Rutor.in. Не нужно использовать прокси, чтобы зайти на рутор, достаточно воспользоваться нашим ресурсом. Все новые фильмы, игры, сериалы, книги и музыка за 2013 и 2014 годы через торрент бесплатно. Скачивайте фильмы в хорошем качестве, игры для пк, xbox, playstation без регистрации. У нас вы найдете новые Зарубежные сериалы и Русские сериалы 2013, 2014, 2015 годов. Оставайтесь с нами, качайте любимые фильмы, игры, сериалы, книги и музыку.