img image001 image001 image001 image001 image001 image001 image001 image001 image001 image001 image001 image001 image001 image001 image001

Planets Sun Sun Sun
Статистика раздачи
Автор: Nickolas3434 | Размер: 859 МБ | Добавлен: 31 янв 2016
Раздают: 106    Качают: 11
Скачать торрент
Скачать торрент
Описание торрента

СообщениеДобавлено: 31 янв 2016 


Информация о фильме
Название: Лаборатория гения
Год выпуска: 2014
Страна: Россия
Жанр: мультсериал, познавательный, детский
Продолжительность: 35 ~ 00:01:30
Перевод: Не требуется
Описание: Дня не проходит, чтобы с веселым и смешным профессором Вилли и его другом и верным помощником - роботом Робби не случился какой-то курьезный случай. То кроты перекопают всю лужайку перед домом и нужно их прогнать, то потребуется достать что-то, лежащее высоко-высоко, то уронят что-нибудь в колодец с водой... И каждый раз Вилли решает проблему не просто, а с научным подходом - он что-то изобретает. Что получается в итоге - всегда непредсказуемо и очень весело!


Доп. информация: Семпл


Качество: WEBRip 1080p
Формат: MP4
Видео: AVC - MPEG-4, High@L4, 1920x1080 (16:9), 25 fps, ~2 538 kbps, 0.049 bit/pixel
Аудио: AAC-LC, 2/0 (L,R) ch, 44,1 kHz, ~254.00 kbps avg
Субтитры: отсутствуют
01. Свинец и золото
02. Мужчина тоже дает жизнь
03. Человек, который растет
04. Как рыба в воде
05. Взрывной эффект
06. Я верю, что умею летать
07. Двойник
08. Под тяжестью интеллекта
09. К вопросу о чуткости слуха
10. Супер Вилли
11. Что она говорит?
12. Париж-Токио-Париж
13. Машина времени
14. Альтернативная энергия
15. Что сегодня на обед?
16. Сложности телекинеза
17. Маленький маленький отпуск
18. Идеальный робот
19. Как изобретать во сне?
20. Доктор гений или Мистер дебил?
21. Про дождь и солнце
22. Межпланетный контакт
23. Свободный полёт
24. Поговори с растениями
25. Профессор-невидимка
26. Невероятная скорость
27. Машина для передачи мыслей
28. Лосьон с сюрпризом
29. Спать или не спать
30. Искусственный нос
31. Суперинтеллект
32. Ускоритель роста растений
33. Разговор с Эйнштейном
34. Пройти сквозь стену
35. На Луне как на Луне
General
Complete name : 25. Профессор-невидимка. 1080p.mp4
Format : MPEG-4
Format profile : Base Media
Codec ID : isom
File size : 30.2 MiB
Duration : 1mn 30s
Overall bit rate : 2 795 Kbps
Writing application : Lavf56.1.100
Video
ID : 1
Format : AVC
Format/Info : Advanced Video Codec
Format profile : High@L4
Format settings, CABAC : Yes
Format settings, ReFrames : 3 frames
Codec ID : avc1
Codec ID/Info : Advanced Video Coding
Duration : 1mn 30s
Bit rate : 2 538 Kbps
Width : 1 920 pixels
Height : 1 080 pixels
Display aspect ratio : 16:9
Frame rate mode : Variable
Frame rate : 25.000 fps
Minimum frame rate : 22.727 fps
Maximum frame rate : 25.000 fps
Color space : YUV
Chroma subsampling : 4:2:0
Bit depth : 8 bits
Scan type : Progressive
Bits/(Pixel*Frame) : 0.049
Stream size : 27.4 MiB (91%)
Audio
ID : 2
Format : AAC
Format/Info : Advanced Audio Codec
Format profile : LC
Codec ID : 40
Duration : 1mn 30s
Bit rate mode : Constant
Bit rate : 254 Kbps
Channel(s) : 2 channels
Channel positions : Front: L R
Sampling rate : 44.1 KHz
Compression mode : Lossy
Stream size : 2.74 MiB (9%)


Релиз от: -merci-



   Похожие торренты   Торрент   Размер 
В этой теме нет новых непрочитанных сообщений. Лаборатория гения [s01] (2014) WEBRip от -merci-

140 | 14

645.7 МБ

В этой теме нет новых непрочитанных сообщений. Катя и Мим-Мим / Kate and Mim-Mim [01-36 из 52] (2014) WEBRip 1080p от -merci- | D

8 | 2

6.57 ГБ

В этой теме нет новых непрочитанных сообщений. Катя и Мим-Мим / Kate and Mim-Mim [01-36 из 52] (2014) WEBRip 1080p от -merci- | D

24 | 3

5.99 ГБ

В этой теме нет новых непрочитанных сообщений. Катя и Мим-Мим / Kate and Mim-Mim [01-36 из 52] (2014) WEBRip 1080p от -merci- | D

1 | 129

6.78 ГБ

В этой теме нет новых непрочитанных сообщений. Катя и Мим-Мим / Kate and Mim-Mim [01-36 из 52] (2014) WEBRip 1080p от -merci- | D

3 | 4

6.95 ГБ

В этой теме нет новых непрочитанных сообщений. Три Фу Том / Tree Fu Tom [s01] (2012) WEBRip 1080p от -merci-

25 | 9

9.64 ГБ

В этой теме нет новых непрочитанных сообщений. Малышарики [01-15 из ?] (2015) WEBRip 1080p от -merci-

213 | 7

983.63 МБ




Вы не можете начинать темы
Вы не можете отвечать на сообщения
Вы не можете редактировать свои сообщения
Вы не можете удалять свои сообщения
Вы не можете добавлять вложения

Перейти:  
Для Мосгорсуда, Роскомнадзора и рекламодателей: mosgorsud-torrent[собачка]yandex.ru
 Вход
ppkBB3cker v.2 © 2008-2014 @ PPK
[ Time : 0.029s | 14 Queries | GZIP : Off ]

Торрент трекер RUTOR.IN, Не можете зайти на rutor.org? Какой новый адрес рутор? Какое зеркало рутор? Не работает rutor.org и зеркала? Тогда наш торрент специально для вас. Rutor.in неофициальное зеркало rutor. В случае если у Вас заблокирован rutor или вдруг Вы не можете на него зайти, то Вы без труда сможете скачать бесплатно и без рекламы последние новинки кино, игр, сериалов и прочего у нас, на Rutor.in. Не нужно использовать прокси, чтобы зайти на рутор, достаточно воспользоваться нашим ресурсом. Все новые фильмы, игры, сериалы, книги и музыка за 2013 и 2014 годы через торрент бесплатно. Скачивайте фильмы в хорошем качестве, игры для пк, xbox, playstation без регистрации. У нас вы найдете новые Зарубежные сериалы и Русские сериалы 2013, 2014, 2015 годов. Оставайтесь с нами, качайте любимые фильмы, игры, сериалы, книги и музыку.