img image001 image001 image001 image001 image001 image001 image001 image001 image001 image001 image001 image001 image001 image001 image001

Planets Sun Sun Sun
Статистика раздачи
Автор: Nickolas3434 | Размер: 22.78 ГБ | Добавлен: 31 янв 2016
Раздают: 32    Качают: 15
Скачать торрент
Скачать торрент
Описание торрента

СообщениеДобавлено: 31 янв 2016 


Оригинальное название: Алиса знает, что делать!
Год выпуска: 2013 - 2015
Страна: Россия, Базелевс
Жанр: Мультсериал, фантастика, фэнтези, приключения
Продолжительность: 24 ~ 00:26:00
Перевод: Не требуется
Сезон: 1 (полный)
Режиссёр: Игорь Ковалев, Ольга Баулина
Роли озвучивали: Дарья Мельникова, Мирослава Карпович, Армен Джигарханян, Анна Ардова, Дмитрий Назаров, Алексей Колган, Ирина Гришина, Валерий Сторожик
Описание: Фантастические приключения Алисы и четверки ее друзей — 12-летних школьников — разворачиваются в будущем. 2093 год, дети все так же посещают школу, вот только добираются туда на летающих роликах, и учитель у них по всем предметам один, к тому же, робот. А за стенами школы — удивительный мир, полный космических путешествий, увлекательных открытий и, конечно, коварных злодеев межгалактического масштаба, остановить которых по силам только неунывающей и отважной Алисе! Путешествуя по галактике, герои столкнутся не только с вселенским злом, но и обретут настоящих друзей. У Алисы появится домашний любимец с планеты Верум — истинокс по кличке Пупер. Он — представитель редкого вида животных, обладающих даром коллективного предсказания. Малыш-истинокс, которого Алиса спасает в одной из серий, очень привязывается к своей хозяйке и становится её постоянным спутником...
Дружба и предательство, первая любовь и одиночество — главные герои столкнутся с различными жизненными ситуациями и научатся их преодолевать. В каждой серии их ждет новое опасное приключение!


Доп. информация:
Эпизоды цельные - 01-20,
Эпизоды с фразой "продолжение следует" - 21-24.
Семпл


Качество: WEB-DL 1080p
Формат: MKV
Видео: AVC; High@L4; 1920х1080 (16:9); 25,000 fps; 4880 Kbps;
Аудио: AC-3; 2.0; 192 Kbps; 48,0 KHz
Субтитры: Отсутствуют
01. Тайна последнего истинокса
02. Опасные иллюзии
03. Капитаны
04. Равновесие
05. Мозги прочь!
06. Оракул на пенсии
07. Игры без правил
08. Песенный поединок
09. Взрывные детишки
10. Золотые балуны
11. Заложники Дибалы
12. Совершенство
13. Воскресная уклонистка
14. 'Не родись красивым'!
15. Энергия прошлого
16. Устаревшие модели
17. Долой креатив!
18. Гуманитарная помощь
19. Подмена растронаса
20. Старики разбойники
21. Зелёная месть
22. Льстец, льстец
23. Наука юмора
24. Даже не думай!
19. Подмена растронаса. WEB-DL.1080p.-merci-.mkv
Format : Matroska
Format version : Version 2
File size : 962 MiB
Duration : 25mn 59s
Overall bit rate : 5 175 Kbps
Movie name : Алиса знает, что делать! / Россия / 2013-2015 / - merci -
Encoded date : UTC 2015-08-03 17:15:56
Writing application : mkvmerge v5.8.0 ('No Sleep / Pillow') built on Sep 2 2012 15:37:04
Writing library : libebml v1.2.3 + libmatroska v1.3.0
Video
ID : 1
Format : AVC
Format/Info : Advanced Video Codec
Format profile : High@L4
Format settings, CABAC : Yes
Format settings, ReFrames : 2 frames
Codec ID : V_MPEG4/ISO/AVC
Duration : 25mn 59s
Bit rate : 4 880 Kbps
Width : 1 920 pixels
Height : 1 080 pixels
Display aspect ratio : 16:9
Frame rate mode : Constant
Frame rate : 25.000 fps
Color space : YUV
Chroma subsampling : 4:2:0
Bit depth : 8 bits
Scan type : Progressive
Bits/(Pixel*Frame) : 0.094
Stream size : 907 MiB (94%)
Title : 19. Подмена растронаса. WEB-DL.1080p.x264.-merci-
Language : Russian
Default : Yes
Forced : No
Color range : Limited
Color primaries : BT.709
Transfer characteristics : BT.709
Matrix coefficients : BT.709
Audio
ID : 2
Format : AC-3
Format/Info : Audio Coding 3
Mode extension : CM (complete main)
Format settings, Endianness : Big
Codec ID : A_AC3
Duration : 25mn 59s
Bit rate mode : Constant
Bit rate : 192 Kbps
Channel(s) : 2 channels
Channel positions : Front: L R
Sampling rate : 48.0 KHz
Compression mode : Lossy
Delay relative to video : 24ms
Stream size : 35.7 MiB (4%)
Title : rus
Language : Russian
Default : Yes
Forced : No


Релиз от: -merci-



   Похожие торренты   Торрент   Размер 
В этой теме нет новых непрочитанных сообщений. Алиса знает, что делать! [s01+бонусы] (2012-2015) Web-DL 720p от -merci-

111 | 32

18.89 ГБ

В этой теме нет новых непрочитанных сообщений. Алиса знает, что делать! [01x01-20 из ?] (2012-2015) Web-DLRip от New-Team

171 | 96

6.99 ГБ

В этой теме нет новых непрочитанных сообщений. Алиса знает, что делать! [01x01-22 из 26 + Бонусы] (2012-2015) Web-DLRip от New-Team

69 | 36

7.66 ГБ

В этой теме нет новых непрочитанных сообщений. Алиса знает, что делать! [01-22 из 24] (2013-2015) WEB-DLRip от Generalfilm

209 | 150

7.52 ГБ

В этой теме нет новых непрочитанных сообщений. Алиса знает, что делать! (1-24 серии из 24) (Игорь Ковалев, Ольга Баулина, Ян Сысоев) [2013-2015, мультфильм, фантастика, фэнтези, приключения, WEB-DLRip]

602 | 166

8.21 ГБ

В этой теме нет новых непрочитанных сообщений. Алиса знает,что делать! [01-07 из 24] (2013) WEB-DLRip от Generalfilm

183 | 21

2.39 ГБ

В этой теме нет новых непрочитанных сообщений. Алиса знает,что делать! [01-11 из 24] (2013) WEB-DLRip от Generalfilm

200 | 36

3.76 ГБ




Вы не можете начинать темы
Вы не можете отвечать на сообщения
Вы не можете редактировать свои сообщения
Вы не можете удалять свои сообщения
Вы не можете добавлять вложения

Перейти:  
Для Мосгорсуда, Роскомнадзора и рекламодателей: mosgorsud-torrent[собачка]yandex.ru
 Вход
ppkBB3cker v.2 © 2008-2014 @ PPK
[ Time : 0.032s | 14 Queries | GZIP : Off ]

Торрент трекер RUTOR.IN, Не можете зайти на rutor.org? Какой новый адрес рутор? Какое зеркало рутор? Не работает rutor.org и зеркала? Тогда наш торрент специально для вас. Rutor.in неофициальное зеркало rutor. В случае если у Вас заблокирован rutor или вдруг Вы не можете на него зайти, то Вы без труда сможете скачать бесплатно и без рекламы последние новинки кино, игр, сериалов и прочего у нас, на Rutor.in. Не нужно использовать прокси, чтобы зайти на рутор, достаточно воспользоваться нашим ресурсом. Все новые фильмы, игры, сериалы, книги и музыка за 2013 и 2014 годы через торрент бесплатно. Скачивайте фильмы в хорошем качестве, игры для пк, xbox, playstation без регистрации. У нас вы найдете новые Зарубежные сериалы и Русские сериалы 2013, 2014, 2015 годов. Оставайтесь с нами, качайте любимые фильмы, игры, сериалы, книги и музыку.