img image001 image001 image001 image001 image001 image001 image001 image001 image001 image001 image001 image001 image001 image001 image001

Planets Sun Sun Sun
Статистика раздачи
Автор: PriZraK | Размер: 2.38 ГБ | Добавлен: 31 янв 2016
Раздают: 154    Качают: 8
Скачать торрент
Скачать торрент
Описание торрента

СообщениеДобавлено: 31 янв 2016 

Информация о фильме
Оригинальное название: Новые приключения кота Леопольда
Год выпуска: 2015
Выпущено: Россия, Русское мобильное телевидение
Жанр: Мультсериал, рисованный, детский
Продолжительность: 11 x ~ 00:13:00
Перевод: не требуется
Режиссер: Анатолий Резников
В ролях: Александр Калягин, Диомид Виноградов, Андрей Бархударов
О фильме: Продолжение историй об интеллигентном коте, который всегда приветлив и всегда носит галстук-бабочку. Двое мышат, Серый и Белый, постоянно доставляют Леопольду уйму неприятностей. Но что бы они ни придумывали, все их попытки заканчиваются неудачами. И даже в самые трудные моменты, когда, казалось бы, от мышей нет спасения, кот Леопольд не устает повторять девиз всей своей жизни: «Ребята, давайте жить дружно!».
Доп. инфориация: Семпл
01. Лавина с гор
02. Сплошные неприятности
03. Всё кувырком
04. Кулинарный рецепт
05. Птицы
08. Новогодняя ёлка
09. Бурный поток
10. На рыбалке у реки
11. Под жарким солнцем
12. Вперёд за колбасой и сыром
13. Парк развлечений

Качество: WEBRip 1080p
Формат: MP4
Видео: MPEG-4-AVC, High@L4, 25.000 fps, 1920x1080 (16:9), ~2 372 Kbps
Аудио: AAC-LC, 2.0(L R), 192 kbps, 44.1 KHz
Субтитры: отсутствуют
10. На рыбалке у реки. 1080p.x264.-merci-.mp4
Format : MPEG-4
Format profile : Base Media
Codec ID : isom
File size : 254 MiB
Duration : 13mn 50s
Overall bit rate mode : Variable
Overall bit rate : 2 568 Kbps
Encoded date : UTC 2016-01-29 12:36:29
Tagged date : UTC 2016-01-29 12:36:29
Writing application : My MP4Box GUI 0.6.0.6
Video
ID : 1
Format : AVC
Format/Info : Advanced Video Codec
Format profile : High@L4
Format settings, CABAC : Yes
Format settings, ReFrames : 3 frames
Codec ID : avc1
Codec ID/Info : Advanced Video Coding
Duration : 13mn 50s
Bit rate : 2 372 Kbps
Maximum bit rate : 7 742 Kbps
Width : 1 920 pixels
Height : 1 080 pixels
Display aspect ratio : 16:9
Frame rate mode : Constant
Frame rate : 25.000 fps
Color space : YUV
Chroma subsampling : 4:2:0
Bit depth : 8 bits
Scan type : Progressive
Bits/(Pixel*Frame) : 0.046
Stream size : 235 MiB (92%)
Title : 10_1080.mp4
Encoded date : UTC 2016-01-16 09:10:52
Tagged date : UTC 2016-01-29 12:36:49
Color range : Limited
Color primaries : BT.709
Transfer characteristics : BT.709
Matrix coefficients : BT.709
Audio
ID : 2
Format : AAC
Format/Info : Advanced Audio Codec
Format profile : LC
Codec ID : 40
Duration : 13mn 50s
Bit rate mode : Variable
Bit rate : 192 Kbps
Maximum bit rate : 201 Kbps
Channel(s) : 2 channels
Channel positions : Front: L R
Sampling rate : 44.1 KHz
Compression mode : Lossy
Stream size : 19.0 MiB (7%)
Title : 10. Íà ðûáàëêå ó ðåêè 720_track2.aac
Encoded date : UTC 2016-01-29 12:36:47
Tagged date : UTC 2016-01-29 12:36:49

Релиз от: -merci-



   Похожие торренты   Торрент   Размер 
В этой теме нет новых непрочитанных сообщений. Новые приключения кота Леопольда [01-03, 08-13 из 13] (2015) WEBRip 1080p от -merci-

67 | 2

1.82 ГБ

В этой теме нет новых непрочитанных сообщений. Новые приключения кота Леопольда [01-06, 08-13 из 13] (2015) WEBRip 1080p от -merci-

79 | 5

2.65 ГБ

В этой теме нет новых непрочитанных сообщений. Новые приключения кота Леопольда [04] (2015) WEBRip 1080p от -merci-

84 | 2

305.4 МБ

В этой теме нет новых непрочитанных сообщений. Новые приключения кота Леопольда [01-13 из 13] (2015) WEBRip 1080p от -merci-

1016 | 59

2.92 ГБ

В этой теме нет новых непрочитанных сообщений. Новые приключения кота Леопольда [01-05, 08-13 из 13] (2015) WEBRip 720p от -merci-

160 | 16

1.72 ГБ

В этой теме нет новых непрочитанных сообщений. Новые приключения кота Леопольда [01-03, 08-13 из 13] (2015) WEBRip 720p от -merci-

110 | 3

1.4 ГБ

В этой теме нет новых непрочитанных сообщений. Новые приключения кота Леопольда [04] (2015) WEBRip 720p от -merci-

33 | 2

174.88 МБ




Вы не можете начинать темы
Вы не можете отвечать на сообщения
Вы не можете редактировать свои сообщения
Вы не можете удалять свои сообщения
Вы не можете добавлять вложения

Перейти:  
Для Мосгорсуда, Роскомнадзора и рекламодателей: mosgorsud-torrent[собачка]yandex.ru
 Вход
ppkBB3cker v.2 © 2008-2014 @ PPK
[ Time : 0.084s | 16 Queries | GZIP : On ]

Торрент трекер RUTOR.IN, Не можете зайти на rutor.org? Какой новый адрес рутор? Какое зеркало рутор? Не работает rutor.org и зеркала? Тогда наш торрент специально для вас. Rutor.in неофициальное зеркало rutor. В случае если у Вас заблокирован rutor или вдруг Вы не можете на него зайти, то Вы без труда сможете скачать бесплатно и без рекламы последние новинки кино, игр, сериалов и прочего у нас, на Rutor.in. Не нужно использовать прокси, чтобы зайти на рутор, достаточно воспользоваться нашим ресурсом. Все новые фильмы, игры, сериалы, книги и музыка за 2013 и 2014 годы через торрент бесплатно. Скачивайте фильмы в хорошем качестве, игры для пк, xbox, playstation без регистрации. У нас вы найдете новые Зарубежные сериалы и Русские сериалы 2013, 2014, 2015 годов. Оставайтесь с нами, качайте любимые фильмы, игры, сериалы, книги и музыку.
cron