img image001 image001 image001 image001 image001 image001 image001 image001 image001 image001 image001 image001 image001 image001 image001

Planets Sun Sun Sun
Статистика раздачи
Автор: Nickolas3434 | Размер: 3.89 ГБ | Добавлен: 02 фев 2016
Раздают: 14    Качают: 3
Скачать торрент
Скачать торрент
Описание торрента

СообщениеДобавлено: 02 фев 2016 

Информация о фильме
Название: Подружки из Хартлейк Сити
Оригинальное название: Lego Friends
Год выпуска: 2012 - 2014
Страна: Дания, Таиланд, M2Film, LEGO, Picture This Studio
Жанр: мультсериал, приключения, романтика, комедия
Продолжительность: 6 x ~ 00:21:00
Перевод: Профессиональный (полное дублирование)
Русские субтитры : нет
Режиссёр: Педер Педерсен / Peder Pedersen
Роли озвучивали: Рич Баклойд, Ракель Кристиана, Джессика Ги, Тейлор Генри, Венди Ли, Софи Робертс
Описание: На озере в форме сердца расположен маленький замечательный город Хартлейк Сити. Здесь и живут наши подружки Андреа, Эмма, Оливия, Мия, Стефани. Героини очень разные по характеру, взглядами, интересами. Но не смотря на это они крепко дружат, находят взаимопонимание, поддерживают друг друга. У них много друзей, увлечений, каждая из героинь имеет свою точку зрения на ту или иную ситуацию. Но им всегда присуща слаженность в действиях, поступках, подруги всегда советуются, понимая, что мнение каждой может быть полезным. Их настроение всегда оптимистическое, вместе они находят выход из любой ситуации, действуя как единая команда.


Доп. информация:
бюджет $ 950 000
премьера (мир) 7 апреля 2012, ...
релиз от merci, работа со звуком, синхронизация.
Видео-ряд: русский (RUS)
Семпл


Качество: WEB-DL 720p
Формат: MKV
Видео: AVC-MPEG4, High@L3.1, 1280x718 (16:9), 25 fps, ~3 915 kbps avg, 0.170 bit/pixel
Аудио #1: 48 kHz, AC3 Dolby Digital, 2/0 (L,R) ch, ~192.00 kbps - русский (дубляж)
Аудио #2: 48 kHz, AC3 Dolby Digital, 2/0 (L,R) ch, ~192.00 kbps - английский
Субтитры: отсутствуют
1 сезон:
2012:
01. Новенькая в городе /New in Town
02. После уроков / Stephanies Surprise Party
03. Круиз с дельфинами / Dolphin Cruise
2014:
04. Смена обстановки / Mia's Ranch Romance (Country Girls)
05. Дилемма Эммы / Emmas Dilemma
06. Друзья Джунглей / Friends of the Jungle
06. Друзья Джунглей.720p.WEB-DL.x264.-merci.mkv
Format : Matroska
Format version : Version 2
File size : 663 MiB
Duration : 21mn 7s
Overall bit rate : 4 386 Kbps
Movie name : LEGO Friends / 2012-2014 / - merci -
Encoded date : UTC 2014-11-03 18:39:19
Writing application : mkvmerge v5.8.0 ('No Sleep / Pillow') built on Sep 2 2012 15:37:04
Writing library : libebml v1.2.3 + libmatroska v1.3.0
Video
ID : 1
Format : AVC
Format/Info : Advanced Video Codec
Format profile : High@L3.1
Format settings, CABAC : Yes
Format settings, ReFrames : 2 frames
Codec ID : V_MPEG4/ISO/AVC
Duration : 21mn 7s
Bit rate : 3 915 Kbps
Width : 1 280 pixels
Height : 718 pixels
Display aspect ratio : 16:9
Frame rate mode : Constant
Frame rate : 25.000 fps
Color space : YUV
Chroma subsampling : 4:2:0
Bit depth : 8 bits
Scan type : Progressive
Bits/(Pixel*Frame) : 0.170
Stream size : 591 MiB (89%)
Title : 06. Друзья Джунглей.720p.WEB-DL.x264.-merci
Language : Russian
Default : Yes
Forced : No
Color range : Limited
Color primaries : BT.709
Transfer characteristics : BT.709
Matrix coefficients : BT.709
Audio #1
ID : 2
Format : AC-3
Format/Info : Audio Coding 3
Mode extension : CM (complete main)
Format settings, Endianness : Big
Codec ID : A_AC3
Duration : 21mn 7s
Bit rate mode : Constant
Bit rate : 192 Kbps
Channel(s) : 2 channels
Channel positions : Front: L R
Sampling rate : 48.0 KHz
Compression mode : Lossy
Stream size : 29.0 MiB (4%)
Title : rus
Language : Russian
Default : Yes
Forced : No
Audio #2
ID : 3
Format : AC-3
Format/Info : Audio Coding 3
Mode extension : CM (complete main)
Format settings, Endianness : Big
Codec ID : A_AC3
Duration : 21mn 7s
Bit rate mode : Constant
Bit rate : 192 Kbps
Channel(s) : 2 channels
Channel positions : Front: L R
Sampling rate : 48.0 KHz
Compression mode : Lossy
Stream size : 29.0 MiB (4%)
Title : eng
Language : English
Default : No
Forced : No


Релиз от: -merci-



   Похожие торренты   Торрент   Размер 
В этой теме нет новых непрочитанных сообщений. Подружки из Хартлейк Сити / Friends: New Girl in Town [01x01-06] (2012-2014) WEB-DLRip от -merci-

74 | 11

1.86 ГБ

В этой теме нет новых непрочитанных сообщений. Подружки из Хартлейк Сити / Friends: New Girl in Town (s01x01-06) (2012-2014) WEB-DL 1080p от -merci-

39 | 13

4.77 ГБ

В этой теме нет новых непрочитанных сообщений. Подружки из Хартлейк Сити. Вебизоды / Friends: New Girl in Town. Webisodes [01-48 из ??] (2012-2015) WEB-DLRip от -merci-

59 | 8

2.26 ГБ

В этой теме нет новых непрочитанных сообщений. Подружки из Хартлейк Сити. Вебизоды / Friends: New Girl in Town. Webisodes [01-67 из ??] (2012-2015) WEB-DLRip от -merci-

16 | 4

3.18 ГБ

В этой теме нет новых непрочитанных сообщений. Подружки из Хартлейк Сити. Вебизоды / LEGO Friends. Webisodes [01-67 из ??] (2012-2015) WEB-DL 720p от -merci-

22 | 4

6.31 ГБ

В этой теме нет новых непрочитанных сообщений. Подружки из Хартлейк Сити. Вебизоды / LEGO Friends. Webisodes [01-69 из ??] (2014-2016) WEB-DL 720p от -merci-

49 | 6

6.51 ГБ

В этой теме нет новых непрочитанных сообщений. Подружки из Хартлейк Сити. Вебизоды / LEGO Friends. Webisodes [01-73 из ??] (2014-2016) WEB-DLRip от -merci- | D

11 | 3

3.48 ГБ




Вы не можете начинать темы
Вы не можете отвечать на сообщения
Вы не можете редактировать свои сообщения
Вы не можете удалять свои сообщения
Вы не можете добавлять вложения

Перейти:  
Для Мосгорсуда, Роскомнадзора и рекламодателей: mosgorsud-torrent[собачка]yandex.ru
cron
 Вход
ppkBB3cker v.2 © 2008-2014 @ PPK
[ Time : 0.068s | 16 Queries | GZIP : On ]

Торрент трекер RUTOR.IN, Не можете зайти на rutor.org? Какой новый адрес рутор? Какое зеркало рутор? Не работает rutor.org и зеркала? Тогда наш торрент специально для вас. Rutor.in неофициальное зеркало rutor. В случае если у Вас заблокирован rutor или вдруг Вы не можете на него зайти, то Вы без труда сможете скачать бесплатно и без рекламы последние новинки кино, игр, сериалов и прочего у нас, на Rutor.in. Не нужно использовать прокси, чтобы зайти на рутор, достаточно воспользоваться нашим ресурсом. Все новые фильмы, игры, сериалы, книги и музыка за 2013 и 2014 годы через торрент бесплатно. Скачивайте фильмы в хорошем качестве, игры для пк, xbox, playstation без регистрации. У нас вы найдете новые Зарубежные сериалы и Русские сериалы 2013, 2014, 2015 годов. Оставайтесь с нами, качайте любимые фильмы, игры, сериалы, книги и музыку.