img image001 image001 image001 image001 image001 image001 image001 image001 image001 image001 image001 image001 image001 image001 image001

Planets Sun Sun Sun
Статистика раздачи
Автор: Nickolas3434 | Размер: 948.49 МБ | Добавлен: 02 фев 2016
Раздают: 54    Качают: 7
Скачать торрент
Скачать торрент
Описание торрента

СообщениеДобавлено: 02 фев 2016 

Информация о фильме
Название: Подружки из Хартлейк Сити
Оригинальное название: Lego Friends
Год выпуска: 2015
Страна: Дания, Таиланд, M2Film, LEGO, Picture This Studio
Жанр: мультсериал, приключения, романтика, комедия
Продолжительность: 3 x ~ 00:21:00
Перевод: Профессиональный (полное дублирование)
Русские субтитры : нет
Режиссёр: Педер Педерсен / Peder Pedersen
Роли озвучивали: Рич Баклойд, Ракель Кристиана, Джессика Ги, Тейлор Генри, Венди Ли, Софи Робертс
Описание: На озере в форме сердца расположен маленький замечательный город Хартлейк Сити. Здесь и живут наши подружки Андреа, Эмма, Оливия, Мия, Стефани. Героини очень разные по характеру, взглядами, интересами. Но не смотря на это они крепко дружат, находят взаимопонимание, поддерживают друг друга. У них много друзей, увлечений, каждая из героинь имеет свою точку зрения на ту или иную ситуацию. Но им всегда присуща слаженность в действиях, поступках, подруги всегда советуются, понимая, что мнение каждой может быть полезным. Их настроение всегда оптимистическое, вместе они находят выход из любой ситуации, действуя как единая команда.


Доп. информация:
бюджет $ 950 000
премьера (мир) 7 апреля 2012, ...
SatRip - канал Disney
Видео-ряд: русский (RUS)
Семпл


Качество: SatRip
Формат: AVI (XviD)
Видео: 720x400 (1.80:1), 25 fps, XviD build 65 ~1899 kbps avg, 0.26 bit/pixel
Аудио : 48 kHz, AC3 Dolby Digital, 2/0 (L,R) ch, ~192.00 kbps - русский (дубляж)
Субтитры: отсутствуют
1 сезон:
2015:
07. Звездный час Андреа
08. Остров Кейт
09. Гранд-отель

s1e09. Гранд-отель. SatRip.-merci-.avi
Format : AVI
Format/Info : Audio Video Interleave
File size : 317 MiB
Duration : 21mn 5s
Overall bit rate : 2 102 Kbps
Writing application : VirtualDubMod 1.5.10.3 | www.virtualdub-fr.org || (build 2550/release)
Writing library : VirtualDubMod build 2550/release
Video
ID : 0
Format : MPEG-4 Visual
Format profile : Advanced Simple@L5
Format settings, BVOP : 1
Format settings, QPel : No
Format settings, GMC : No warppoints
Format settings, Matrix : Default (MPEG)
Codec ID : XVID
Codec ID/Hint : XviD
Duration : 21mn 5s
Bit rate : 1 900 Kbps
Width : 720 pixels
Height : 400 pixels
Display aspect ratio : 16:9
Frame rate : 25.000 fps
Color space : YUV
Chroma subsampling : 4:2:0
Bit depth : 8 bits
Scan type : Progressive
Compression mode : Lossy
Bits/(Pixel*Frame) : 0.264
Stream size : 287 MiB (90%)
Writing library : XviD 65
Audio
ID : 1
Format : AC-3
Format/Info : Audio Coding 3
Mode extension : CM (complete main)
Format settings, Endianness : Big
Codec ID : 2000
Duration : 21mn 5s
Bit rate mode : Constant
Bit rate : 192 Kbps
Channel(s) : 2 channels
Channel positions : Front: L R
Sampling rate : 48.0 KHz
Compression mode : Lossy
Stream size : 29.0 MiB (9%)
Alignment : Split accross interleaves
Interleave, duration : 40 ms (1.00 video frame)
Interleave, preload duratio : 500 ms



Релиз от: -merci-



   Похожие торренты   Торрент   Размер 
В этой теме нет новых непрочитанных сообщений. Подружки из Хартлейк Сити. Вебизоды / LEGO Friends. Webisodes [01-67 из ??] (2012-2015) WEB-DL 720p от -merci-

22 | 4

6.31 ГБ

В этой теме нет новых непрочитанных сообщений. Подружки из Хартлейк Сити. Вебизоды / LEGO Friends. Webisodes [01-73 из ??] (2014-2016) WEB-DLRip от -merci- | D

38 | 3

3.58 ГБ

В этой теме нет новых непрочитанных сообщений. Подружки из Хартлейк Сити. Вебизоды / LEGO Friends. Webisodes [01-69 из ??] (2014-2016) WEB-DL 720p от -merci-

49 | 6

6.51 ГБ

В этой теме нет новых непрочитанных сообщений. Подружки из Хартлейк Сити. Вебизоды / LEGO Friends. Webisodes [01-69 из ??] (2014-2016) WEB-DLRip от -merci-

97 | 15

3.28 ГБ

В этой теме нет новых непрочитанных сообщений. Подружки из Хартлейк Сити. Вебизоды / LEGO Friends. Webisodes [01-73 из ??] (2014-2016) WEB-DLRip от -merci- | D

11 | 3

3.48 ГБ

В этой теме нет новых непрочитанных сообщений. Подружки из Хартлейк Сити. Вебизоды / Friends: New Girl in Town. Webisodes [01-48 из ??] (2012-2015) WEB-DLRip от -merci-

59 | 8

2.26 ГБ

В этой теме нет новых непрочитанных сообщений. Подружки из Хартлейк Сити. Вебизоды / Friends: New Girl in Town. Webisodes [01-67 из ??] (2012-2015) WEB-DLRip от -merci-

16 | 4

3.18 ГБ




Вы не можете начинать темы
Вы не можете отвечать на сообщения
Вы не можете редактировать свои сообщения
Вы не можете удалять свои сообщения
Вы не можете добавлять вложения

Перейти:  
Для Мосгорсуда, Роскомнадзора и рекламодателей: mosgorsud-torrent[собачка]yandex.ru
 Вход
ppkBB3cker v.2 © 2008-2014 @ PPK
[ Time : 0.065s | 16 Queries | GZIP : On ]

Торрент трекер RUTOR.IN, Не можете зайти на rutor.org? Какой новый адрес рутор? Какое зеркало рутор? Не работает rutor.org и зеркала? Тогда наш торрент специально для вас. Rutor.in неофициальное зеркало rutor. В случае если у Вас заблокирован rutor или вдруг Вы не можете на него зайти, то Вы без труда сможете скачать бесплатно и без рекламы последние новинки кино, игр, сериалов и прочего у нас, на Rutor.in. Не нужно использовать прокси, чтобы зайти на рутор, достаточно воспользоваться нашим ресурсом. Все новые фильмы, игры, сериалы, книги и музыка за 2013 и 2014 годы через торрент бесплатно. Скачивайте фильмы в хорошем качестве, игры для пк, xbox, playstation без регистрации. У нас вы найдете новые Зарубежные сериалы и Русские сериалы 2013, 2014, 2015 годов. Оставайтесь с нами, качайте любимые фильмы, игры, сериалы, книги и музыку.
cron