img image001 image001 image001 image001 image001 image001 image001 image001 image001 image001 image001 image001 image001 image001 image001

Planets Sun Sun Sun
Статистика раздачи
Автор: Nickolas3434 | Размер: 698.88 МБ | Добавлен: 02 фев 2016
Раздают: 1465    Качают: 78
Скачать торрент
Скачать торрент
Описание торрента

СообщениеДобавлено: 02 фев 2016 


Информация о фильме
Название: Иван Царевич и Серый Волк 3
Год выхода: 2015
Жанр: мультфильм, комедия, приключения, фэнтези
Режиссер: Дарина Шмидт
В ролях: Никита Ефремов, Иван Охлобыстин, Михаил Боярский, Артур Смольянинов, Татьяна Бунина, Михаил Хрусталев, Дмитрий Высоцкий, Олег Куликович, Анатолий Петров, Роман Никитин
О фильме:
Царь Тридевятого царства, в честь своего 150-летия решил, что с него хватит — пора на заслуженный отдых. «Я устал. Я ухожу», — заявил самодержец и с удочкой и ведёрком удалился в деревенскую глушь. А оберегать государство остались Иван с Серым Волком. Вот только Василиса, жена Ивана, заявила, что свадебного путешествия у неё не было, заграницу она не видела, «постить» в инстаграм решительно нечего и вообще. Иван спорить не стал, а вместе с Василисой, Котом — ученым и Серым Волком, погрузился на ковер-самолет и отправился в путь. А за главного в стране герои оставили самое обычное огородное пугало… Но пока компания шаталась по Миланам и Парижам, Пугало ожило и начало наводить свои порядки в Тридевятом царстве…
Страна: Россия
Студия: Кинокомпания СТВ, Анимационная студия Мельница
Продолжительность: 01:14:01
Перевод: Не требуется
Файл
Формат: AVI (XviD)
Качество: WEB-DLRip
Видео: 656x368 (16:9), 25 fps, XviD ~1182 kbps avg, 0.196 bit/pixel
Звук: 48 kHz, MP3, 2/0 (L,R) ch, ~128 kbps
Полное имя : Ivan.i.Volk.3.2015.XviD.WEB-DLRip.by.GeneralFilm.avi
Формат : AVI
Формат/Информация : Audio Video Interleave
Размер файла : 699 Мбайт
Продолжительность : 1 ч. 14 м.
Общий поток : 1320 Кбит/сек
Программа кодирования : VirtualDubMod 1.5.10.3 | www.virtualdub-fr.org || (build 2550/release)
Библиотека кодирования : VirtualDubMod build 2550/release
Видео
Идентификатор : 0
Формат : MPEG-4 Visual
Профиль формата : Advanced Simple@L5
Параметр BVOP формата : 1
Параметр QPel формата : Нет
Параметр GMC формата : Без точки перехода
Параметр матрицы формата : Выборочная
Идентификатор кодека : XVID
Идентификатор кодека/Подсказка : XviD
Продолжительность : 1 ч. 14 м.
Битрейт : 1182 Кбит/сек
Ширина : 656 пикселей
Высота : 368 пикселей
Соотношение сторон : 16:9
Частота кадров : 25,000 кадров/сек
Цветовое пространство : YUV
Субдискретизация насыщенности : 4:2:0
Битовая глубина : 8 бит
Тип развёртки : Прогрессивная
Метод сжатия : С потерями
Бит/(Пиксели*Кадры) : 0.196
Размер потока : 626 Мбайт (90%)
Библиотека кодирования : XviD 73
Аудио
Идентификатор : 1
Формат : MPEG Audio
Версия формата : Version 1
Профиль формата : Layer 3
Идентификатор кодека : 55
Идентификатор кодека/Подсказка : MP3
Продолжительность : 1 ч. 14 м.
Вид битрейта : Постоянный
Битрейт : 128 Кбит/сек
Каналы : 2 канала
Частота : 48,0 КГц
Метод сжатия : С потерями
Размер потока : 67,8 Мбайт (10%)
Выравнивание : Соединение по промежуткам
Продолжительность промежутка : 40 мс. (1,00 видеокадр)
Время предзагрузки промежутка : 504 мс.
Библиотека кодирования : LAME3.99r
Настройки программы : -m s -V 4 -q 0 -lowpass 17 -b 128







Релиз от:



   Похожие торренты   Торрент   Размер 
В этой теме нет новых непрочитанных сообщений. Иван Царевич и Серый Волк 3 (2015) WEB-DLRip от GeneralFilm | iTunes Russia

1094 | 58

743.63 МБ

В этой теме нет новых непрочитанных сообщений. Иван Царевич и Серый Волк 3 (2015) WEB-DLRip

14578 | 1071

1.37 ГБ

В этой теме нет новых непрочитанных сообщений. Иван Царевич и Серый Волк 3 (2015) WEB-DLRip

1474 | 39

702.01 МБ

В этой теме нет новых непрочитанных сообщений. Иван Царевич и Серый Волк 3 (2015) BDRip от GeneralFilm | Лицензия

728 | 88

746.79 МБ

В этой теме нет новых непрочитанных сообщений. Иван Царевич и Серый Волк 3 (2015) WEB-DLRip-AVC от ExKinoRay

298 | 16

744.94 МБ

В этой теме нет новых непрочитанных сообщений. Иван Царевич и Серый Волк 3 (2015) WEB-DLRip-AVC от ExKinoRay

403 | 5

1.23 ГБ

В этой теме нет новых непрочитанных сообщений. Иван Царевич и Серый Волк 3 (2015) WEB-DLRip-AVC от ExKinoRay

628 | 3

744.44 МБ




Вы не можете начинать темы
Вы не можете отвечать на сообщения
Вы не можете редактировать свои сообщения
Вы не можете удалять свои сообщения
Вы не можете добавлять вложения

Перейти:  
Для Мосгорсуда, Роскомнадзора и рекламодателей: mosgorsud-torrent[собачка]yandex.ru
 Вход
ppkBB3cker v.2 © 2008-2014 @ PPK
[ Time : 0.024s | 17 Queries | GZIP : On ]

Торрент трекер RUTOR.IN, Не можете зайти на rutor.org? Какой новый адрес рутор? Какое зеркало рутор? Не работает rutor.org и зеркала? Тогда наш торрент специально для вас. Rutor.in неофициальное зеркало rutor. В случае если у Вас заблокирован rutor или вдруг Вы не можете на него зайти, то Вы без труда сможете скачать бесплатно и без рекламы последние новинки кино, игр, сериалов и прочего у нас, на Rutor.in. Не нужно использовать прокси, чтобы зайти на рутор, достаточно воспользоваться нашим ресурсом. Все новые фильмы, игры, сериалы, книги и музыка за 2013 и 2014 годы через торрент бесплатно. Скачивайте фильмы в хорошем качестве, игры для пк, xbox, playstation без регистрации. У нас вы найдете новые Зарубежные сериалы и Русские сериалы 2013, 2014, 2015 годов. Оставайтесь с нами, качайте любимые фильмы, игры, сериалы, книги и музыку.