img image001 image001 image001 image001 image001 image001 image001 image001 image001 image001 image001 image001 image001 image001 image001

Planets Sun Sun Sun
Статистика раздачи
Автор: Nickolas3434 | Размер: 64.42 ГБ | Добавлен: 09 фев 2016
Раздают: 19    Качают: 7
Скачать торрент
Скачать торрент
Описание торрента

СообщениеДобавлено: 09 фев 2016 

Веселые мелодии. Том 1.2.3 / Looney Tunes. Volume 1.2.3

Перевод: Профессиональный (многоголосый, закадровый)
Субтитры: отсутствуют
Формат: BDRip, MKV, H.264, AC3
Страна: США
Режиссер: Чак Джонс, Фриц Фрилинг, Текс Эйвери, Роберт МакКимсон, Алекс Лови, Фрэнк Тэшлин, Кэл Далтон, Кэл Ховард, Рудольф Исинг
Жанр: мультфильм, короткометражка, комедия, семейный
Продолжительность: 150 x ~ 00:08:00
Год выпуска: 1936-1966

В ролях: Мэл Бланк, Тед Пирс, Дэйв Вебер, Томми Бонд, Бернисе Хансен, Текс Эйвери, Джон Диринг, Делос Джукес, Джорджия Старк, Билли Блэтчер, Джонни Дэвис, Джо Догерти, Бернисе Хансен, Марта Вентуорф, Дэнни Уэбб, Элвия Оллман, Сара Бернер, Фил Крамер, Клифф Назарро, Джордж МакФарлэнд, Мэйбл Тодд, Би Бенадерет, Карлтон Каделл, Джонни Мюррэй

Описание: Сборник короткометражных мультфильмов. Производство Уорнер Бразерс, США, 1936-1966 гг. Для любой зрительской аудитории. Фильмы перешли в общественное достояние на территории Российской Федерации.



Видео: 986x720p (4:3), 23,976 fps, MPEG4 AVC (x264), ~8500 Kbps avg, 0.499 bit/pixel
Аудио: Русский 48 kHz, AC3, 1 ch ~ 192 Kbps [Профессиональный (многоголосый, закадровый)(Омикрон)]


Общее
Уникальный идентификатор : 185061747573482592380096104348019107931 (0x8B39989B66CF1D1BBD3E38DBA97CA85B)
Полное имя : F:\TREKER\ТЕМР\looney_tunes_[tfile.ru]\looney_tunes_s01_01.mkv
Формат : Matroska
Версия формата : Version 2
Размер файла : 518 Мбайт
Продолжительность : 8 м. 20 с.
Общий поток : 8679 Кбит/сек
Название фильма : looney_tunes_s01
Дата кодирования : UTC 2016-01-27 10:59:53
Программа кодирования : mkvmerge v4.0.0 ('The Stars were mine') сборка от Jun 6 2010 16:18:42
Библиотека кодирования : libebml v1.0.0 + libmatroska v1.0.0
Attachements : cover.jpg

Видео
Идентификатор : 1
Формат : AVC
Формат/Информация : Advanced Video Codec
Профиль формата :
Параметр CABAC формата : Да
Параметр ReFrames формата : 11 кадров
Идентификатор кодека : V_MPEG4/ISO/AVC
Продолжительность : 8 м. 20 с.
Битрейт : 8500 Кбит/сек
Ширина : 986 пикселей
Высота : 720 пикселей
Соотношение сторон : 4:3
Режим частоты кадров : Постоянный
Частота кадров : 23,976 кадра/сек
Цветовое пространство : YUV
Субдискретизация насыщенности : 4:2:0
Битовая глубина : 8 бит
Тип развёртки : Прогрессивная
Бит/(Пиксели*Кадры) : 0.499
Размер потока : 496 Мбайт (96%)
Заголовок : looney_tunes_s01_01
Библиотека кодирования : x264 core 120 r2164 da19765
Настройки программы : cabac=1 / ref=11 / deblock=1:-3:-3 / analyse=0x3:0x113 / me=tesa / subme=11 / psy=1 / psy_rd=0.80:0.00 / mixed_ref=1 / me_range=24 / chroma_me=1 / trellis=2 / 8x8dct=1 / cqm=0 / deadzone=21,11 / fast_pskip=0 / chroma_qp_offset=-2 / threads=12 / sliced_threads=0 / nr=0 / decimate=0 / interlaced=0 / bluray_compat=0 / constrained_intra=0 / bframes=11 / b_pyramid=2 / b_adapt=2 / b_bias=0 / direct=3 / weightb=1 / open_gop=0 / weightp=2 / keyint=250 / keyint_min=23 / scenecut=40 / intra_refresh=0 / rc_lookahead=40 / rc=2pass / mbtree=0 / bitrate=8500 / ratetol=1.0 / qcomp=0.60 / qpmin=0 / qpmax=69 / qpstep=4 / cplxblur=20.0 / qblur=0.5 / vbv_maxrate=50000 / vbv_bufsize=62500 / nal_hrd=none / ip_ratio=1.40 / pb_ratio=1.30 / aq=2:0.60
Язык : English
Default : Нет
Forced : Нет
Цветовой диапазон : Limited
Коэффициенты матрицы : BT.709

Аудио
Идентификатор : 2
Формат : AC-3
Формат/Информация : Audio Coding 3
Расширение режима : CM (complete main)
Параметр Endianness формата : Big
Идентификатор кодека : A_AC3
Продолжительность : 8 м. 20 с.
Вид битрейта : Постоянный
Битрейт : 192 Кбит/сек
Каналы : 1 канал
Расположение каналов : Front: C
Частота : 48,0 КГц
Метод сжатия : С потерями
Размер потока : 11,4 Мбайт (2%)
Заголовок : Профессиональный (многоголосый, закадровый)(студия "Омикрон")
Язык : Russian
Default : Нет
Forced : Нет










   Похожие торренты   Торрент   Размер 
В этой теме нет новых непрочитанных сообщений. Веселые мелодии / Looney Tunes (сборник короткометражных мультфильмов) / Серии: 1-165 из ? (Фрэнк Тэшлин...) [1931-1979, США, мультфильм, короткометражка, комедия, семейный, DVDRip] MVO

41 | 32

20.53 ГБ

В этой теме нет новых непрочитанных сообщений. Веселые мелодии / Looney Tunes (сборник короткометражных мультфильмов) / Серии: 1-165 из ? (Фрэнк Тэшлин...) [1931-1979, США, мультфильм, короткометражка, комедия, семейный, DVDRip-AVC] MVO

75 | 41

19.05 ГБ

В этой теме нет новых непрочитанных сообщений. Веселые мелодии: Коллекционное издание [1-50 из 50] / Looney Tunes: Ultimate Collector's Edition (1936-1966) BDRip-AVC от ExKinoRay

96 | 4

7.18 ГБ

В этой теме нет новых непрочитанных сообщений. Монстры на каникулах 2 / Hotel Transylvania 2 (Генндий Тартаковский) [2015, Мультфильм, фэнтези, комедия, семейный, BDRip 720p (60 fps)] DUB / Мультфильмы (HD/BD Video)

230 | 10

5.09 ГБ

В этой теме нет новых непрочитанных сообщений. Looney Tunes Part 1 (1936-1966) BDRip 720p от HQ-ViDEO

11 | 9

8.16 ГБ

В этой теме нет новых непрочитанных сообщений. Монстры на каникулах 2 / Hotel Transylvania 2 (Генндий Тартаковский) [2015, мультфильм, фэнтези, комедия, семейный, BDRip 720p] 2xDUB (rus, ukr) / Мультфильмы (HD/BD Video)

1317 | 70

3.57 ГБ

В этой теме нет новых непрочитанных сообщений. Монстры на каникулах 2 / Hotel Transylvania 2 (Генндий Тартаковский) [2015, мультфильм, фэнтези, комедия, семейный, HDTVRip 720p] DUB (rus,ukr) / Мультфильмы (HD/BD Video)

457 | 6

4.21 ГБ




Вы не можете начинать темы
Вы не можете отвечать на сообщения
Вы не можете редактировать свои сообщения
Вы не можете удалять свои сообщения
Вы не можете добавлять вложения

Перейти:  
Для Мосгорсуда, Роскомнадзора и рекламодателей: mosgorsud-torrent[собачка]yandex.ru
 Вход
ppkBB3cker v.2 © 2008-2014 @ PPK
[ Time : 0.027s | 15 Queries | GZIP : Off ]

Торрент трекер RUTOR.IN, Не можете зайти на rutor.org? Какой новый адрес рутор? Какое зеркало рутор? Не работает rutor.org и зеркала? Тогда наш торрент специально для вас. Rutor.in неофициальное зеркало rutor. В случае если у Вас заблокирован rutor или вдруг Вы не можете на него зайти, то Вы без труда сможете скачать бесплатно и без рекламы последние новинки кино, игр, сериалов и прочего у нас, на Rutor.in. Не нужно использовать прокси, чтобы зайти на рутор, достаточно воспользоваться нашим ресурсом. Все новые фильмы, игры, сериалы, книги и музыка за 2013 и 2014 годы через торрент бесплатно. Скачивайте фильмы в хорошем качестве, игры для пк, xbox, playstation без регистрации. У нас вы найдете новые Зарубежные сериалы и Русские сериалы 2013, 2014, 2015 годов. Оставайтесь с нами, качайте любимые фильмы, игры, сериалы, книги и музыку.