img image001 image001 image001 image001 image001 image001 image001 image001 image001 image001 image001 image001 image001 image001 image001

Planets Sun Sun Sun
Статистика раздачи
Автор: Nickolas3434 | Размер: 4.08 ГБ | Добавлен: 09 фев 2016
Раздают: 585    Качают: 17
Скачать торрент
Скачать торрент
Описание торрента

СообщениеДобавлено: 09 фев 2016 

Савва. Сердце воина

Перевод: Не требуется
Субтитры: отсутствуют
Формат: BDRip, MKV, H.264, AC3
Страна: Россия
Режиссер: Максим Фадеев
Жанр: мультфильм, приключения, фэнтези, семейный
Продолжительность: 01:27:20
Год выпуска: 2015

В ролях: Константин Хабенский, Фёдор Бондарчук, Армен Джигарханян, Григорий Лепс, Сергей Шнуров, Михаил Галустян, Глюкоза, Сергей Гармаш, Лолита Милявская, Николай Басков

Описание: История о мальчике Савве десяти лет, который живёт в маленькой лесной деревне. Когда-то деревню от врагов защищали благородные белые волки. Но однажды волки исчезли и на деревню напала банда свирепых Гиен. Савве удаётся сбежать в лес, где он знакомится с Ангой — последним белым волком.
Анга рассказывает Савве о могущественном Волшебнике, который живёт на горе и может помочь Савве освободить его деревню. Но, к сожалению, эту гору окружает огромное войско, под предводительством злобной Мамы ЖоЗи — трёхголовой королевы обезьян.
Справляясь с непреодолимыми трудностями, Савва и Анга начинают свой длинный и опасный путь на гору. По пути к ним присоединяются и другие путешественники: Пусик — странное розовое пушистое существо; Фафл — самоуверенный тип, похожий на француза, который в действительности является заколдованным полубароном и вынужден носить на плече короля комаров; принцессу болотного племени Нанти и других. У всех есть свои личные причины, чтобы идти к Волшебнику. По пути к своей цели, друзьям предстоит преодолеть множество препятствий, узнать страшные тайны и вступить в битву с войском обезьян и коварной Мамой ЖоЗи.




Видео: 1280x536p (2,40:1), 24,000 fps, MPEG4 AVC (x264), ~5911 Kbps avg, 0.359 bit/pixel
Аудио: Русский 48 kHz, AC3, 6 ch ~ 640 Kbps


Общее
Уникальный идентификатор : 248001214549617751854694204693348990100 (0xBA934BE9B037A6C1AF39D1F82471BC94)
Полное имя : F:\TREKER\ТЕМР\sawa_the_heart_of_a_warrior_[tfile.ru].mkv
Формат : Matroska
Версия формата : Version 2
Размер файла : 4,08 Гбайт
Продолжительность : 1 ч. 27 м.
Общий поток : 6684 Кбит/сек
Название фильма : sawa_the_heart_of_a_warrior_[tfile.ru]
Дата кодирования : UTC 2016-01-30 16:18:56
Программа кодирования : mkvmerge v4.0.0 ('The Stars were mine') сборка от Jun 6 2010 16:18:42
Библиотека кодирования : libebml v1.0.0 + libmatroska v1.0.0
Attachements : cover.jpg

Видео
Идентификатор : 1
Формат : AVC
Формат/Информация : Advanced Video Codec
Профиль формата :
Параметр CABAC формата : Да
Параметр ReFrames формата : 6 кадров
Идентификатор кодека : V_MPEG4/ISO/AVC
Продолжительность : 1 ч. 27 м.
Битрейт : 5911 Кбит/сек
Номинальный битрейт : 6344 Кбит/сек
Ширина : 1280 пикселей
Высота : 536 пикселей
Соотношение сторон : 2,40:1
Режим частоты кадров : Постоянный
Частота кадров : 24,000 кадра/сек
Цветовое пространство : YUV
Субдискретизация насыщенности : 4:2:0
Битовая глубина : 8 бит
Тип развёртки : Прогрессивная
Бит/(Пиксели*Кадры) : 0.359
Размер потока : 3,61 Гбайт (88%)
Заголовок : sawa_the_heart_of_a_warrior_[tfile.ru]
Библиотека кодирования : x264 core 146 r2538 121396c
Настройки программы : cabac=1 / ref=6 / deblock=1:-1:-1 / analyse=0x3:0x133 / me=umh / subme=10 / psy=1 / psy_rd=1.00:0.15 / mixed_ref=1 / me_range=24 / chroma_me=1 / trellis=2 / 8x8dct=1 / cqm=0 / deadzone=21,11 / fast_pskip=0 / chroma_qp_offset=-3 / threads=12 / lookahead_threads=1 / sliced_threads=0 / nr=0 / decimate=1 / interlaced=0 / bluray_compat=0 / constrained_intra=0 / bframes=3 / b_pyramid=2 / b_adapt=2 / b_bias=0 / direct=1 / weightb=1 / open_gop=0 / weightp=2 / keyint=250 / keyint_min=23 / scenecut=40 / intra_refresh=0 / rc_lookahead=50 / rc=abr / mbtree=1 / bitrate=6344 / ratetol=1.0 / qcomp=0.69 / qpmin=0 / qpmax=69 / qpstep=4 / ip_ratio=1.40 / aq=1:1.00
Язык : Russian
Default : Нет
Forced : Нет

Аудио
Идентификатор : 2
Формат : AC-3
Формат/Информация : Audio Coding 3
Расширение режима : CM (complete main)
Параметр Endianness формата : Big
Идентификатор кодека : A_AC3
Продолжительность : 1 ч. 27 м.
Вид битрейта : Постоянный
Битрейт : 640 Кбит/сек
Каналы : 6 каналов
Расположение каналов : Front: L C R, Side: L R, LFE
Частота : 48,0 КГц
Метод сжатия : С потерями
Размер потока : 400 Мбайт (10%)
Заголовок : Оригинал
Язык : Russian
Default : Нет
Forced : Нет

Меню
00:00:00.000 : en:
00:04:56.500 : en:
00:13:36.750 : en:
00:19:56.333 : en:
00:28:01.416 : en:
00:33:43.208 : en:
00:41:19.583 : en:
00:48:14.583 : en:
00:56:44.041 : en:
00:59:33.333 : en:
01:07:51.291 : en:
01:14:34.083 : en:










   Похожие торренты   Торрент   Размер 
В этой теме нет новых непрочитанных сообщений. Савва. Сердце воина (Максим Фадеев) [2015, мультфильм, приключения, фэнтези, WEB-DLRip]

468 | 6

703.78 МБ

В этой теме нет новых непрочитанных сообщений. Савва. Сердце воина (Максим Фадеев) [2015, мультфильм, приключения, фэнтези, WEB-DLRip]

1157 | 10

1.37 ГБ

В этой теме нет новых непрочитанных сообщений. Хороший динозавр / The Good Dinosaur (Питер Сон) [2015, мультфильм, фэнтези, комедия, приключения, семейный, BDRip 1080p] DUB [Line] / Мультфильмы (HD/BD Video)

681 | 28

4.5 ГБ

В этой теме нет новых непрочитанных сообщений. Монстры на каникулах 2 / Hotel Transylvania 2 (Генндий Тартаковский) [2015, Мультфильм, фэнтези, комедия, семейный, BDRip 720p (60 fps)] DUB / Мультфильмы (HD/BD Video)

228 | 10

5.09 ГБ

В этой теме нет новых непрочитанных сообщений. Монстры на каникулах 2 / Hotel Transylvania 2 (Генндий Тартаковский) [2015, мультфильм, фэнтези, комедия, семейный, BDRip 720p] 2xDUB (rus, ukr) / Мультфильмы (HD/BD Video)

1314 | 70

3.57 ГБ

В этой теме нет новых непрочитанных сообщений. Монстры на каникулах 2 / Hotel Transylvania 2 (Генндий Тартаковский) [2015, мультфильм, фэнтези, комедия, семейный, HDTVRip 720p] DUB (rus,ukr) / Мультфильмы (HD/BD Video)

457 | 6

4.21 ГБ

В этой теме нет новых непрочитанных сообщений. Монстры на каникулах 2 / Hotel Transylvania 2 (Генндий Тартаковский) [2015, мультфильм, фэнтези, комедия, семейный, BDRip 1080p] 2xDUB (rus, ukr) / Мультфильмы (HD/BD Video)

1512 | 108

5.99 ГБ




Вы не можете начинать темы
Вы не можете отвечать на сообщения
Вы не можете редактировать свои сообщения
Вы не можете удалять свои сообщения
Вы не можете добавлять вложения

Перейти:  
Для Мосгорсуда, Роскомнадзора и рекламодателей: mosgorsud-torrent[собачка]yandex.ru
 Вход
ppkBB3cker v.2 © 2008-2014 @ PPK
[ Time : 0.106s | 15 Queries | GZIP : On ]

Торрент трекер RUTOR.IN, Не можете зайти на rutor.org? Какой новый адрес рутор? Какое зеркало рутор? Не работает rutor.org и зеркала? Тогда наш торрент специально для вас. Rutor.in неофициальное зеркало rutor. В случае если у Вас заблокирован rutor или вдруг Вы не можете на него зайти, то Вы без труда сможете скачать бесплатно и без рекламы последние новинки кино, игр, сериалов и прочего у нас, на Rutor.in. Не нужно использовать прокси, чтобы зайти на рутор, достаточно воспользоваться нашим ресурсом. Все новые фильмы, игры, сериалы, книги и музыка за 2013 и 2014 годы через торрент бесплатно. Скачивайте фильмы в хорошем качестве, игры для пк, xbox, playstation без регистрации. У нас вы найдете новые Зарубежные сериалы и Русские сериалы 2013, 2014, 2015 годов. Оставайтесь с нами, качайте любимые фильмы, игры, сериалы, книги и музыку.