img image001 image001 image001 image001 image001 image001 image001 image001 image001 image001 image001 image001 image001 image001 image001

Planets Sun Sun Sun
Статистика раздачи
Автор: Nickolas3434 | Размер: 2.31 ГБ | Добавлен: 10 фев 2016
Раздают: 252    Качают: 7
Скачать торрент
Скачать торрент
Описание торрента

СообщениеДобавлено: 10 фев 2016 

• Крепость: щитом и мечом •

Страна: Россия
Производство: Кинокомпания CTB, Анимационная студия Мельница
Год выпуска: 2015
Жанр: Мультфильм, приключения, военный, семейный
Режиссёр: Федор Дмитриев
В ролях: Пётр Фёдоров, Евгений Стычкин, Елена Шульман, Екатерина Гороховская, Вадим Никитин, Олег Куликович, Сергей Русскин, Михаил Хрусталев, Анатолий Петрова
Перевод: Не требуется
Описание: 1609 год. Идет война. Польско-литовские войска взяли в осаду Смоленск, но русский гарнизон во главе с воеводой Михаилом Шеиным готов держать оборону до конца. Смоленск — главная крепость на пути захватчиков к Москве, и его нельзя сдавать без боя. Об этом знают даже дети.

Качество: BDRip 720p (исходник BDRemux)
Тип: HD (720p)
Продолжительность: 01:16:43
Формат: M4V
Видео кодек: H.264
Аудио кодек: AAC/AC-3
Свойства видео: 1280x544 (2.35:1), 23.976 (24000/1001) fps, 3 500 Kbps (0.210 bit/pixel)
Свойства аудио: 48.0 KHz, 2 ch, 158 kbps [Русский/Оригинальная дорожка]
Свойства аудио 2: 48.0 KHz, 5.1 ch, 640 kbps [Русский/Оригинальная дорожка]
iTunes Meta Tags
Sort Name: Крепость: щитом и мечом
XID: Apple:vendor_id:2015-566549
contentID: 1052506794
Copyright: © 2015 Наше Кино
Screenwriters: Александр Боярский
Producers: Сергей Сельянов, Александр Боярский
Director: Федор Дмитриев
Cast: Пётр Фёдоров, Евгений Стычкин, Елена Шульман, Екатерина Гороховская, Вадим Никитин, Олег Куликович, Сергей Русскин, Михаил Хрусталев, Анатолий Петров
Studio: Кинокомпания СТВ, Анимационная студия Мельница
Rating: 133
Long Deion: 1609 год. Идет война. Польско-литовские войска взяли в осаду Смоленск, но русский гарнизон во главе с воеводой Михаилом Шеиным готов держать оборону до конца. Смоленск - главная крепость на пути захватчиков к Москве, и его нельзя сдавать без боя. Об этом знают даже дети.
Мальчик Сашка лепит самодельные бомбы из теста и колдует в защиту города - вызывает на помощь Царя с Огненным щитом и Пламенным копьем. Пока волшебный царь не пришел, Сашка и его друг Федор просятся в помощники к воеводе. Им предстоит разрушить коварные планы польского короля Сигизмунда Третьего и справиться с нечистой силой, что по ночам бродит по осажденной крепости.
Deion: 1609 год. Идет война. Польско-литовские войска взяли в осаду Смоленск, но русский гарнизон во главе с воеводой Михаилом Шеиным готов держать оборону до конца. Смоленск - главная крепость на пути захватчиков к Москве, и его нельзя сдавать без боя. Об этом знают даже дети...
Release Date: 2015-10-29T08:00:00Z
Genre: Kids & Family
Artist: Федор Дмитриев
Name: Крепость: щитом и мечом


General
Complete name : /Users/imac/HandBrake/Krepost (720p HD).m4v
Format : MPEG-4
Codec ID : M4V (M4V /M4A /mp42/isom)
File size : 2.31 GiB
Duration : 1h 16mn
Overall bit rate mode : Variable
Overall bit rate : 4 299 Kbps
Movie name : Крепость: щитом и мечом
Performer : Федор Дмитриев
Director : Федор Дмитриев
Actor : Пётр Фёдоров / Евгений Стычкин / Елена Шульман / Екатерина Гороховская / Вадим Никитин / Олег Куликович / Сергей Русскин / Михаил Хрусталев / Анатолий Петров
Screenplay by : Александр Боярский
Producer : Сергей Сельянов / Александр Боярский
Production studio : Кинокомпания СТВ, Анимационная студия Мельница
Genre : Kids & Family
ContentType : Short Film
Deion : 1609 год. Идет война. Польско-литовские войска взяли в осаду Смоленск, но русский гарнизон во главе с воеводой Михаилом Шеиным готов держать оборону до конца. Смоленск - главная крепость на пути захватчиков к Москве, и его нельзя сдавать без боя. Об этом знают даже дети...
Recorded date : UTC 2015-10-29 08:00:00
Encoded date : UTC 2016-01-28 21:07:36
Tagged date : UTC 2016-01-28 21:08:43
Copyright : © 2015 Наше Кино
Cover : Yes
Rating : None
Title/Sort : Крепость: щитом и мечом
LongDeion : 1609 год. Идет война. Польско-литовские войска взяли в осаду Смоленск, но русский гарнизон во главе с воеводой Михаилом Шеиным готов держать оборону до конца. Смоленск - главная крепость на пути захватчиков к Москве, и его нельзя сдавать без боя. Об этом знают даже дети. / Мальчик Сашка лепит самодельные бомбы из теста и колдует в защиту города - вызывает на помощь Царя с Огненным щитом и Пламенным копьем. Пока волшебный царь не пришел, Сашка и его друг Федор просятся в помощники к воеводе. Им предстоит разрушить коварные планы польского короля Сигизмунда Третьего и справиться с нечистой силой, что по ночам бродит по осажденной крепости.
HDVideo : Yes
AppleStoreCatalogID : 1052506794
Vendor : Apple:vendor_id:2015-566549
ContentRating : ru-movie|6+|150|
Video #1
ID : 1
Format : AVC
Format/Info : Advanced Video Codec
Format profile : High@L3.1
Format settings, CABAC : No
Format settings, ReFrames : 3 frames
Codec ID : avc1
Codec ID/Info : Advanced Video Coding
Duration : 1h 16mn
Source duration : 1h 16mn
Bit rate : 3 500 Kbps
Width : 1 280 pixels
Height : 544 pixels
Display aspect ratio : 2.35:1
Frame rate mode : Variable
Frame rate : 23.976 (24000/1001) fps
Minimum frame rate : 23.810 fps
Maximum frame rate : 24.318 fps
Color space : YUV
Chroma subsampling : 4:2:0
Bit depth : 8 bits
Scan type : Progressive
Bits/(Pixel*Frame) : 0.210
Stream size : 1.88 GiB (81%)
Source stream size : 1.88 GiB (81%)
Title : Main Program
Writing library : x264 core 142 r2479 dd79a61
Encoding settings : cabac=0 / ref=3 / deblock=1:-3:-3 / analyse=0x3:0x113 / me=umh / subme=9 / psy=1 / psy_rd=1.00:0.15 / mixed_ref=1 / me_range=32 / chroma_me=1 / trellis=0 / 8x8dct=1 / cqm=0 / deadzone=21,11 / fast_pskip=0 / chroma_qp_offset=-2 / threads=36 / lookahead_threads=3 / sliced_threads=0 / nr=0 / decimate=0 / interlaced=0 / bluray_compat=0 / constrained_intra=0 / bframes=3 / b_pyramid=0 / b_adapt=2 / b_bias=0 / direct=1 / weightb=0 / open_gop=0 / weightp=0 / keyint=240 / keyint_min=24 / scenecut=40 / intra_refresh=0 / rc_lookahead=40 / rc=2pass / mbtree=1 / bitrate=3500 / ratetol=1.0 / qcomp=0.65 / qpmin=0 / qpmax=69 / qpstep=4 / cplxblur=20.0 / qblur=0.5 / vbv_maxrate=9500 / vbv_bufsize=9500 / nal_hrd=none / filler=0 / ip_ratio=1.40 / aq=1:1.10
Language : Russian
Encoded date : UTC 2016-01-28 21:07:36
Tagged date : UTC 2016-01-28 21:07:41
Color range : Limited
Color primaries : BT.709
Transfer characteristics : BT.709
Matrix coefficients : BT.709
Menus : 4,5
Video #2
ID : 5
Format : JPEG
Codec ID : jpeg
Duration : 1h 16mn
Bit rate mode : Variable
Bit rate : 851 bps
Width : 640 pixels
Height : 272 pixels
Display aspect ratio : 2.35:1
Frame rate mode : Variable
Frame rate : 0.003 fps
Minimum frame rate : 0.002 fps
Maximum frame rate : 0.004 fps
Color space : YUV
Chroma subsampling : 4:2:0
Bit depth : 8 bits
Compression mode : Lossy
Bits/(Pixel*Frame) : 1.630
Stream size : 416 KiB (0%)
Title : Chapter Images
Language : Russian
Default : No
Encoded date : UTC 2016-01-28 21:07:57
Tagged date : UTC 2016-01-28 21:07:57
Menu For : 1
Audio #1
ID : 2
Format : AAC
Format/Info : Advanced Audio Codec
Format profile : LC
Codec ID : 40
Duration : 1h 16mn
Bit rate mode : Variable
Bit rate : 158 Kbps
Maximum bit rate : 236 Kbps
Channel(s) : 2 channels
Channel positions : Front: L R
Sampling rate : 48.0 KHz
Frame rate : 46.875 fps (1024 spf)
Compression mode : Lossy
Stream size : 87.0 MiB (4%)
Title : Russian Stereo
Language : Russian
Default : Yes
Alternate group : 1
Encoded date : UTC 2016-01-28 21:07:36
Tagged date : UTC 2016-01-28 21:07:54
Fallback From : 3
Audio #2
ID : 3
Format : AC-3
Format/Info : Audio Coding 3
Mode extension : CM (complete main)
Format settings, Endianness : Big
Codec ID : ac-3
Duration : 1h 16mn
Bit rate mode : Constant
Bit rate : 640 Kbps
Channel(s) : 6 channels
Channel positions : Front: L C R, Side: L R, LFE
Sampling rate : 48.0 KHz
Frame rate : 31.250 fps (1536 spf)
Bit depth : 16 bits
Compression mode : Lossy
Stream size : 352 MiB (15%)
Title : Russian DD 5.1
Language : Russian
Default : Inherited From: 2
Alternate group : 1
Encoded date : UTC 2016-01-28 21:07:36
Tagged date : UTC 2016-01-28 21:07:54
Fallback To : 2
Menu #1
00:00:00.000 : Chapter 1
00:06:57.125 : Chapter 2
00:11:47.206 : Chapter 3
00:18:53.674 : Chapter 4
00:22:58.752 : Chapter 5
00:29:04.785 : Chapter 6
00:37:31.291 : Chapter 7
00:44:49.353 : Chapter 8
00:49:38.142 : Chapter 9
00:55:17.105 : Chapter 10
01:03:54.998 : Chapter 11
01:11:31.829 : Chapter 12
Menu #2
ID : 4
Codec ID : text
Duration : 1h 16mn
Language : Russian
Encoded date : UTC 2016-01-28 21:07:54
Tagged date : UTC 2016-01-28 21:07:54
Menu For : 1
00:00:00.000 : Chapter 1
00:06:57.125 : Chapter 2
00:11:47.206 : Chapter 3
00:18:53.674 : Chapter 4
00:22:58.752 : Chapter 5
00:29:04.785 : Chapter 6
00:37:31.291 : Chapter 7
00:44:49.353 : Chapter 8
00:49:38.142 : Chapter 9
00:55:17.105 : Chapter 10
01:03:54.998 : Chapter 11
01:11:31.829 : Chapter 12
Bit rate mode : VBR


x264 лог
x264 [info]: frame I:1367 Avg QP: 7.72 size:130200
x264 [info]: frame P:48274 Avg QP:10.20 size: 29677
x264 [info]: frame B:60970 Avg QP:14.87 size: 6635
x264 [info]: consecutive B-frames: 9.5% 39.5% 35.1% 16.0%
x264 [info]: mb I I16..4: 16.6% 39.4% 44.0%
x264 [info]: mb P I16..4: 2.1% 4.6% 3.3% P16..4: 40.0% 14.3% 9.6% 0.0% 0.0% skip:26.0%
x264 [info]: mb B I16..4: 0.2% 0.8% 0.6% B16..8: 19.7% 8.5% 2.1% direct: 2.7% skip:65.4% L0:43.7% L1:45.1% BI:11.2%
x264 [info]: 8x8 transform intra:44.8% inter:33.3%
x264 [info]: coded y,uvDC,uvAC intra: 75.7% 74.4% 66.2% inter: 19.2% 20.5% 18.2%
x264 [info]: i16 v,h,dc,p: 60% 18% 6% 16%
x264 [info]: i8 v,h,dc,ddl,ddr,vr,hd,vl,hu: 12% 15% 18% 8% 8% 8% 9% 14% 10%
x264 [info]: i4 v,h,dc,ddl,ddr,vr,hd,vl,hu: 12% 13% 14% 9% 11% 11% 10% 11% 8%
x264 [info]: i8c dc,h,v,p: 57% 19% 16% 7%
x264 [info]: ref P L0: 77.7% 13.6% 8.7%
x264 [info]: ref B L0: 79.0% 21.0%
x264 [info]: kb/s:3494.48




   Похожие торренты   Торрент   Размер 
В этой теме нет новых непрочитанных сообщений. Крепость: щитом и мечом (2015) BDRip 720p от HELLYWOOD | Лицензия

2922 | 150

2.89 ГБ

В этой теме нет новых непрочитанных сообщений. Крепость: щитом и мечом (2015) WEB-DL 720p | iTunes

3537 | 121

2.38 ГБ

В этой теме нет новых непрочитанных сообщений. Крепость: щитом и мечом (2015) BDRip | Лицензия

2345 | 280

1.44 ГБ

В этой теме нет новых непрочитанных сообщений. Крепость: щитом и мечом (2015) BDRip | Лицензия

668 | 19

743.26 МБ

В этой теме нет новых непрочитанных сообщений. Крепость: щитом и мечом (2015) BDRip-AVC | Лицензия

1770 | 113

1.16 ГБ

В этой теме нет новых непрочитанных сообщений. Крепость: щитом и мечом (2015) BDRip 1080p

1050 | 19

2.19 ГБ

В этой теме нет новых непрочитанных сообщений. Крепость: щитом и мечом (2015) BDRip-AVC от HELLYWOOD | Лицензия

954 | 46

1.46 ГБ




Вы не можете начинать темы
Вы не можете отвечать на сообщения
Вы не можете редактировать свои сообщения
Вы не можете удалять свои сообщения
Вы не можете добавлять вложения

Перейти:  
Для Мосгорсуда, Роскомнадзора и рекламодателей: mosgorsud-torrent[собачка]yandex.ru
 Вход
ppkBB3cker v.2 © 2008-2014 @ PPK
[ Time : 0.032s | 15 Queries | GZIP : Off ]

Торрент трекер RUTOR.IN, Не можете зайти на rutor.org? Какой новый адрес рутор? Какое зеркало рутор? Не работает rutor.org и зеркала? Тогда наш торрент специально для вас. Rutor.in неофициальное зеркало rutor. В случае если у Вас заблокирован rutor или вдруг Вы не можете на него зайти, то Вы без труда сможете скачать бесплатно и без рекламы последние новинки кино, игр, сериалов и прочего у нас, на Rutor.in. Не нужно использовать прокси, чтобы зайти на рутор, достаточно воспользоваться нашим ресурсом. Все новые фильмы, игры, сериалы, книги и музыка за 2013 и 2014 годы через торрент бесплатно. Скачивайте фильмы в хорошем качестве, игры для пк, xbox, playstation без регистрации. У нас вы найдете новые Зарубежные сериалы и Русские сериалы 2013, 2014, 2015 годов. Оставайтесь с нами, качайте любимые фильмы, игры, сериалы, книги и музыку.