img image001 image001 image001 image001 image001 image001 image001 image001 image001 image001 image001 image001 image001 image001 image001

Planets Sun Sun Sun
Статистика раздачи
Автор: Nickolas3434 | Размер: 17.85 ГБ | Добавлен: 10 фев 2016
Раздают: 26    Качают: 15
Скачать торрент
Скачать торрент
Описание торрента

СообщениеДобавлено: 10 фев 2016 

• Приключения Тинтина / The Adventures of Tintin •

Страна: Франция, Канада
Производство: Centre National de la Cinématographie (CNC)
Год выпуска: 1992
Жанр: Мультфильм, криминал, детектив, приключения, семейный
Режиссёр: Стефан Бернаскони
В ролях: Колин О’Мира, Дэвид Фокс, Анри Лабюсьер, Уэйн Робсон, Ив Барсак, Джон Стокер, Дэн Хеннесси, Жан-Пьер Мулен
Перевод: Дублированный [Первый канал]
Субтитры: Английские
Описание: Главный герой мультсериала — молодой газетный репортёр Тинтин, а также его собака Снежок, белый фокстерьер. Благодаря своей профессии Тинтин путешествует по всему миру и становится участником увлекательных приключений.


Качество: BDRip (720p)
Продолжительность: по ~ 00:21:00
Формат: MP4
Видео кодек: H.264 AVC
Аудио кодек: AC3
Свойства видео: 1280x720 at 25.000 fps, x264@L4.1, 2-pass, ~6000-11500 kbps avg
Аудио#1: Russian: 48 kHz, AC3, 2/0 (L,R) ch, ~192.00 kbps avg [Дубляж, Gulli / Первый канал - всемирная сеть]
Аудио#2 : English: 48 kHz, AC3, 2/0 (L,R) ch, ~256.00 kbps avg
Релиз от:
Общее
Уникальный идентификатор : 175826818200484534554834479366240009542 (0x8447036F7BF6A1E786A1D7A4B948FD46)
Полное имя : D:The.Adventures.Of.Tintin.S01.1991.720p.BDRip_MediaClubThe.Adventures.of.Tintin.S01E01.The.Crab.With.The.Golden.Claws.Part.1.720p.BDRip_MediaClub.mkv
Формат : Matroska
Версия формата : Version 4 / Version 2
Размер файла : 1,54 Гбайт
Продолжительность : 22 м.
Общий поток : 9845 Кбит/сек
Название фильма : ReJIiZ MediaClub
Дата кодирования : UTC 2016-01-24 08:36:51
Программа кодирования : mkvmerge v6.9.1 ('Blue Panther') 32bit built on Apr 18 2014 18:15:44
Библиотека кодирования : libebml v1.3.0 + libmatroska v1.4.1
Видео
Идентификатор : 1
Формат : AVC
Формат/Информация : Advanced Video Codec
Профиль формата : High@L4.1
Параметр CABAC формата : Да
Параметр ReFrames формата : 9 кадров
Идентификатор кодека : V_MPEG4/ISO/AVC
Продолжительность : 22 м.
Битрейт : 9201 Кбит/сек
Ширина : 1280 пикселей
Высота : 720 пикселей
Соотношение сторон : 16:9
Режим частоты кадров : Постоянный
Частота кадров : 25,000 кадров/сек
Частота кадров в оригинале : 23,976 (24000/1001) кадра/сек
Цветовое пространство : YUV
Субдискретизация насыщенности : 4:2:0
Битовая глубина : 8 бит
Тип развёртки : Прогрессивная
Бит/(Пиксели*Кадры) : 0.399
Размер потока : 1,44 Гбайт (93%)
Библиотека кодирования : x264 core 136 r2348+704+51 d1baef6 tMod [8-bit@4:2:0 X86]
Настройки программы : cabac=1 / ref=9 / deblock=1:-3:-3 / analyse=0x3:0x113 / me=umh / subme=10 / psy=1 / fade_compensate=0.00 / psy_rd=1.10:0.00 / mixed_ref=1 / me_range=32 / chroma_me=1 / trellis=2 / 8x8dct=1 / cqm=0 / deadzone=21,11 / fast_pskip=0 / chroma_qp_offset=-2 / threads=6 / lookahead_threads=1 / sliced_threads=0 / nr=0 / decimate=0 / interlaced=0 / bluray_compat=0 / constrained_intra=0 / fgo=0 / bframes=8 / b_pyramid=2 / b_adapt=2 / b_bias=0 / direct=3 / weightb=1 / open_gop=0 / weightp=2 / keyint=250 / keyint_min=23 / scenecut=40 / intra_refresh=0 / rc_lookahead=60 / rc=crf / mbtree=0 / crf=19.0000 / qcomp=0.70 / qpmin=0:0:0 / qpmax=69:69:69 / qpstep=4 / vbv_maxrate=50000 / vbv_bufsize=62500 / crf_max=0.0 / nal_hrd=none / ip_ratio=1.20 / pb_ratio=1.10 / aq=3:0.60 / aq-sensitivity=10.00 / aq-factor=1.00:1.00:1.00 / aq2=0 / aq3=0
Язык : English
Default : Да
Forced : Да
Аудио #1
Идентификатор : 2
Формат : AC-3
Формат/Информация : Audio Coding 3
Расширение режима : CM (complete main)
Параметр Endianness формата : Big
Идентификатор кодека : A_AC3
Продолжительность : 22 м.
Вид битрейта : Постоянный
Битрейт : 192 Кбит/сек
Каналы : 2 канала
Расположение каналов : Front: L R
Частота : 48,0 КГц
Частота кадров : 31,250 кадров/сек (1536 spf)
Метод сжатия : С потерями
Размер потока : 30,7 Мбайт (2%)
Язык : Russian
Default : Да
Forced : Да
Аудио #2
Идентификатор : 3
Формат : AC-3
Формат/Информация : Audio Coding 3
Расширение режима : CM (complete main)
Параметр Endianness формата : Big
Идентификатор кодека : A_AC3
Продолжительность : 22 м.
Вид битрейта : Постоянный
Битрейт : 256 Кбит/сек
Каналы : 2 канала
Расположение каналов : Front: L R
Частота : 48,0 КГц
Частота кадров : 31,250 кадров/сек (1536 spf)
Метод сжатия : С потерями
Размер потока : 40,9 Мбайт (3%)
Язык : English
Default : Нет
Forced : Нет
Текст
Идентификатор : 4
Формат : UTF-8
Идентификатор кодека : S_TEXT/UTF8
Идентификатор кодека/Информация : UTF-8 Plain Text
Язык : English
Default : Нет
Forced : Нет
Меню
00:00:00.000 : en:00:00:00.000
00:11:13.172 : en:00:11:13.172




   Похожие торренты   Торрент   Размер 
В этой теме нет новых непрочитанных сообщений. Приключения Тинтина / The Adventures of Tintin [S03] (1993) BDRip 720p от MediaClub | D

25 | 10

16.99 ГБ

В этой теме нет новых непрочитанных сообщений. Приключения Тинтина / The Adventures of Tintin [S01] (1991) BDRip 720p от MediaClub

84 | 30

18.19 ГБ

В этой теме нет новых непрочитанных сообщений. Приключения Тинтина: Тайна Единорога / The Adventures of Tintin (2011) BDRip 720p | Лицензия

0 | 3

5.8 ГБ

В этой теме нет новых непрочитанных сообщений. Приключения Тинтина: Тайна Единорога / The Adventures of Tintin (2011) BDRip 720p от HELLYWOOD | Лицензия

78 | 85

5.59 ГБ

В этой теме нет новых непрочитанных сообщений. Приключения Тинтина: Тайна Единорога / The Adventures of Tintin (2011) BDRip 720p от Leonardo and Scarabey | Лицензия

169 | 8

3.18 ГБ

В этой теме нет новых непрочитанных сообщений. Приключения Тинтина: Тайна Единорога / The Adventures of Tintin (2011) BDRip от HQCLUB

60 | 9

2.18 ГБ

В этой теме нет новых непрочитанных сообщений. Приключения Тинтина: Тайна Единорога / The Adventures of Tintin (2011) BDRip 1080p

27 | 4

4.37 ГБ




Вы не можете начинать темы
Вы не можете отвечать на сообщения
Вы не можете редактировать свои сообщения
Вы не можете удалять свои сообщения
Вы не можете добавлять вложения

Перейти:  
Для Мосгорсуда, Роскомнадзора и рекламодателей: mosgorsud-torrent[собачка]yandex.ru
 Вход
ppkBB3cker v.2 © 2008-2014 @ PPK
[ Time : 0.020s | 17 Queries | GZIP : On ]

Торрент трекер RUTOR.IN, Не можете зайти на rutor.org? Какой новый адрес рутор? Какое зеркало рутор? Не работает rutor.org и зеркала? Тогда наш торрент специально для вас. Rutor.in неофициальное зеркало rutor. В случае если у Вас заблокирован rutor или вдруг Вы не можете на него зайти, то Вы без труда сможете скачать бесплатно и без рекламы последние новинки кино, игр, сериалов и прочего у нас, на Rutor.in. Не нужно использовать прокси, чтобы зайти на рутор, достаточно воспользоваться нашим ресурсом. Все новые фильмы, игры, сериалы, книги и музыка за 2013 и 2014 годы через торрент бесплатно. Скачивайте фильмы в хорошем качестве, игры для пк, xbox, playstation без регистрации. У нас вы найдете новые Зарубежные сериалы и Русские сериалы 2013, 2014, 2015 годов. Оставайтесь с нами, качайте любимые фильмы, игры, сериалы, книги и музыку.