img image001 image001 image001 image001 image001 image001 image001 image001 image001 image001 image001 image001 image001 image001 image001

Planets Sun Sun Sun
Статистика раздачи
Автор: Nickolas3434 | Размер: 3.28 ГБ | Добавлен: 18 фев 2016
Раздают: 97    Качают: 15
Скачать торрент
Скачать торрент
Описание торрента

СообщениеДобавлено: 18 фев 2016 

Информация о фильме
Название: Подружки из Хартлейк Сити. Вебизоды
Оригинальное название: Lego Friends. Webisodes
Год выпуска: 2014-2016
Страна: Дания, Таиланд, M2Film, LEGO, Picture This Studio
Жанр: мультсериал, приключения, романтика, комедия
Продолжительность: 69 x ~ 00:03:15
Перевод: Профессиональный (полное дублирование)
Русские субтитры : нет
Режиссёр: Педер Педерсен / Peder Pedersen
Роли озвучивали: Рич Баклойд, Ракель Кристиана, Джессика Ги, Тейлор Генри, Венди Ли, Софи Робертс
Описание: Вебизоды - это маленькие фрагменты из жизни героинь основного мультсериала. Они самостоятельны и самодостаточны. От основных серий независимы. Применена 2D графика в отличие от самого мультсериала (3D)>> На озере в форме сердца расположен маленький замечательный город Хартлейк Сити. Здесь и живут наши подружки Андреа, Эмма, Оливия, Мия, Стефани. Героини очень разные по характеру, взглядами, интересами...
2014
s1e01. Первый рабочий день Андреа
s1e02. Жеребенок в ловушке
s1e03. Пляжный блюз
s1e04. Научное шоу Оливии
s1e05. Чудище голубой лагуны
s1e06. Не все потеряно
s1e07. Самый сок!
s1e08. Птица-говорун
s1e09. Розыгрыш
s1e10. Мишка в беде
s1e11. Одна команда
s1e12. Ночной поход
s1e13. Наука льда
s1e14. Портрет Тони
s1e15. Кексы в джунглях

2015
s2e01. Открытки-сердечки
s2e02. Переезд Эммы, Часть I
s2e03. Переезд Эммы, Часть II
s2e04. Любопытное мороженое
s2e05. Большие мечты (Big Dreams)
s2e06. Переполох на День Святого Валентина
s2e07. Репортаж из-за кулис
s2e08. Неприкосновенные
s2e09. Девочки не храпят
s2e10. В поисках сокровищ
s2e11. Во весь голос
s2e12. Сочные новости
s2e13. Попробуй, обмани
s2e14. Уроки дизайна от Эммы
s2e15. Спецдоставка
s2e16. Создаем группу
s2e17. Ну, пап!
s2e18. Дружба повсюду
s2e19. Наш особый день
s2e20. Жизнь Ливи
s2e21. Озорные пузырьки
s2e22. Зловещий отель
s2e23. Собаки-скейтеры
s2e24. Нейт устраивает свидание
s2e25. Место для репетиций
s2e26. Голова кругом!
s2e27. День причесок
s2e28. Идеальный снимок
s2e29. Любовная песня Джейкоба
s2e30. Готовка и не только
s2e31. Брат, что ты наделал
s2e32. Веселье в студии
s2e33. Какая ты звезда
s2e34. Вкус науки
s2e35. Спи, малыш-скунс
s2e36. Любовные письма
s2e37. Большой секрет
s2e38. Видео-чудо. Часть 1
s2e39. Видео-чудо. Часть 2
s2e40. Обычная девчонка
s2e41. Маскарад
s2e42. Скоростное обслуживание номеров
s2e43. Сказка о двух вечеринках
s2e44. Кошмар с кроликом
s2e45. Идеальная пицца
s2e46. Тайна исчезнувших фруктов
s2e47. Звук сирены
s2e48. Пропавший пингвин
s2e49. Хор одной певицы
s2e50. Свидание по старинке
s2e51. Обратная сторона хоккея
s2e52. Дружный Новый Год

2016
s3e01. Нельзя не влюбиться в Хартлейк Сити!
s3e02. Неужели это свидание?




Доп. информация:
Работа со звуком, синхронизация - от -merci-
Видео-ряд: русский (RUS)
Семпл


Файл
Формат: AVI
Качество: WEB-DLRip
Видео: 720x400 (1.80:1), 25 fps, XviD build 65 ~1901 kbps avg, 0.26 bit/pixel
Аудио: 48 kHz, AC3 Dolby Digital, 2/0 (L,R) ch, ~192.00 kbps - русский (дубляж)
Субтитры: отсутствуют
s1e05. Чудище голубой лагуны. XviD.-merci.avi
Format : AVI
Format/Info : Audio Video Interleave
File size : 41.5 MiB
Duration : 2mn 45s
Overall bit rate : 2 103 Kbps
Writing application : VirtualDubMod 1.5.10.3 | www.virtualdub-fr.org || (build 2550/release)
Writing library : VirtualDubMod build 2550/release
Video
ID : 0
Format : MPEG-4 Visual
Format profile : Advanced Simple@L5
Format settings, BVOP : 1
Format settings, QPel : No
Format settings, GMC : No warppoints
Format settings, Matrix : Default (MPEG)
Codec ID : XVID
Codec ID/Hint : XviD
Duration : 2mn 45s
Bit rate : 1 901 Kbps
Width : 720 pixels
Height : 400 pixels
Display aspect ratio : 16:9
Frame rate : 25.000 fps
Color space : YUV
Chroma subsampling : 4:2:0
Bit depth : 8 bits
Scan type : Progressive
Compression mode : Lossy
Bits/(Pixel*Frame) : 0.264
Stream size : 37.5 MiB (90%)
Writing library : XviD 65
Audio
ID : 1
Format : AC-3
Format/Info : Audio Coding 3
Mode extension : CM (complete main)
Format settings, Endianness : Big
Codec ID : 2000
Duration : 2mn 45s
Bit rate mode : Constant
Bit rate : 192 Kbps
Channel(s) : 2 channels
Channel positions : Front: L R
Sampling rate : 48.0 KHz
Compression mode : Lossy
Stream size : 3.79 MiB (9%)
Alignment : Split accross interleaves
Interleave, duration : 40 ms (1.00 video frame)
Interleave, preload duratio : 500 ms
Title : rus


Релиз от: -merci-



   Похожие торренты   Торрент   Размер 
В этой теме нет новых непрочитанных сообщений. Подружки из Хартлейк Сити. Вебизоды / LEGO Friends. Webisodes [01-73 из ??] (2014-2016) WEB-DLRip от -merci- | D

11 | 3

3.48 ГБ

В этой теме нет новых непрочитанных сообщений. Подружки из Хартлейк Сити. Вебизоды / LEGO Friends. Webisodes [01-73 из ??] (2014-2016) WEB-DLRip от -merci- | D

38 | 3

3.58 ГБ

В этой теме нет новых непрочитанных сообщений. Подружки из Хартлейк Сити. Вебизоды / LEGO Friends. Webisodes [01-69 из ??] (2014-2016) WEB-DL 720p от -merci-

49 | 6

6.51 ГБ

В этой теме нет новых непрочитанных сообщений. Подружки из Хартлейк Сити. Вебизоды / LEGO Friends. Webisodes [01-67 из ??] (2012-2015) WEB-DL 720p от -merci-

22 | 4

6.31 ГБ

В этой теме нет новых непрочитанных сообщений. Подружки из Хартлейк Сити. Вебизоды / LEGO Friends. Webisodes [01-86 из ?] (2014-2016) WEB-DL 720p от ExKinoRay | D

25 | 9

8.13 ГБ

В этой теме нет новых непрочитанных сообщений. Подружки из Хартлейк Сити. Вебизоды / Friends: New Girl in Town. Webisodes [01-67 из ??] (2012-2015) WEB-DLRip от -merci-

16 | 4

3.18 ГБ

В этой теме нет новых непрочитанных сообщений. Подружки из Хартлейк Сити. Вебизоды / Friends: New Girl in Town. Webisodes [01-48 из ??] (2012-2015) WEB-DLRip от -merci-

59 | 8

2.26 ГБ




Вы не можете начинать темы
Вы не можете отвечать на сообщения
Вы не можете редактировать свои сообщения
Вы не можете удалять свои сообщения
Вы не можете добавлять вложения

Перейти:  
Для Мосгорсуда, Роскомнадзора и рекламодателей: mosgorsud-torrent[собачка]yandex.ru
 Вход
ppkBB3cker v.2 © 2008-2014 @ PPK
[ Time : 0.062s | 15 Queries | GZIP : On ]

Торрент трекер RUTOR.IN, Не можете зайти на rutor.org? Какой новый адрес рутор? Какое зеркало рутор? Не работает rutor.org и зеркала? Тогда наш торрент специально для вас. Rutor.in неофициальное зеркало rutor. В случае если у Вас заблокирован rutor или вдруг Вы не можете на него зайти, то Вы без труда сможете скачать бесплатно и без рекламы последние новинки кино, игр, сериалов и прочего у нас, на Rutor.in. Не нужно использовать прокси, чтобы зайти на рутор, достаточно воспользоваться нашим ресурсом. Все новые фильмы, игры, сериалы, книги и музыка за 2013 и 2014 годы через торрент бесплатно. Скачивайте фильмы в хорошем качестве, игры для пк, xbox, playstation без регистрации. У нас вы найдете новые Зарубежные сериалы и Русские сериалы 2013, 2014, 2015 годов. Оставайтесь с нами, качайте любимые фильмы, игры, сериалы, книги и музыку.