img image001 image001 image001 image001 image001 image001 image001 image001 image001 image001 image001 image001 image001 image001 image001

Planets Sun Sun Sun
Статистика раздачи
Автор: Nickolas3434 | Размер: 24.68 ГБ | Добавлен: 18 фев 2016
Раздают: 14    Качают: 6
Скачать торрент
Скачать торрент
Описание торрента

СообщениеДобавлено: 18 фев 2016 

Информация о фильме
Название: Медведи - соседи
Оригинальное название: Boonie Bears
Год выпуска: 2010
Страна: Китай
Жанр: мультсериал, приключения, комедия
Продолжительность: 104 x ~ 00:13:00
Перевод: Профессиональный (дублированный)
Русские субтитры: нет
Режиссёр: Леон Динг, Xuhui Xing
Роли озвучивали: Джастин Джозеф Вилер, Рик Джей Глен, Тони Томпсон, Ши Александр, Пол «Макс» Райнхарт
Описание: В прекрасном заповедном лесу мирно уживаются звери и птицы. Но однажды туда приходит злой и хитрый дровосек — он хочет полностью вырубить нетронутый лес! Хорошо, что лесные просторы охраняют храбрые и могучие медведи-соседи — вдвоем они справятся с любой опасностью и проучат подлого дровосека.


Доп. информация:
Семпл


Файл
Формат: MP4
Качество: WEBRip 1080p
Видео: MPEG4-AVC, 1920x1080 (16:9), 25.000 fps, 3 090 Kbps
Аудио: AAC-LC 2.0, 44.1 KHz, 256 kbps, (русский, дубляж)
Субтитры: отсутствуют
1 сезон (2010)
001. Новый сосед
002. Сердитая птичка
003. Фруктовые бомбы
004. Битва стратегов
005. Робот Вик
006. Панда?
007. За колючей проволокой
008. Медведи - нинзя
009. Медовый заговор
010. Печенье для домашних животных
011. Балет на льду
012. Футбольные страсти?
013. Никакой охоты
014. Брамбл - водитель
015. Примёршие пальчики
016. Высокое напряженме
017. Припасы кончились
018. Вик геракл
019. Справка для Вика
020. Битва за лес
021. Король леса
022. Зимние забавы
023. Машина Вика
024. Помощники лесоруба
025. Властелин каски
026. Ходячие деревья
027. Угости орешком
028. Телевизор Вика
029. Битва за пилу
030. Починишь, Вик?
031. Медвежий Гипно-спрей
032. Зачем нужен погрузчик
033. Сигнализация с пультом дистанционного управления
034. Розыгрыш со знаками
035. Новый телефон Вика
036. Вкусные помидоры
037. Новые правила для лесоруба
038. Зимняя спячка лесоруба
039. День защиты медведей
040. Бой на воздушном шаре
041. Выходной Вика
042. Медвежий ошейник
043. Игра с огнем
044. Медвежье печенье
045. Шпионские страсти
046. День рождения Вика
047. Гольф
048. Бинокль
049. Автограф
050. Медведи чемпионы
051. Кувшин для медведей
052. Вечеринка с пиццей
053. Вик-миллионер
054. Спасите старое дерево
055. Моё секретное оружие
056. Микроволновка Вика
057. Зеркало, зеркало
058. Вик повсюду
059. Пила-монстр
060. Брамбл спасает деревья
061. Жуткий лес
062. Летающий дом
063. Бесконечный выходной
064. Бронерованный Вик
065. Автомат для газировки
066. Новый медведь
067. Уборка
068. Герои-пожарные
069. Ультра классный камуфляж
070. Кун-фу мишки
071. Драка за чипсы
072. Медвежья граффити
073. Лабиринт приключений
074. Старый страшный тоннель
075. Вик сошел с ума
076. Танцор диско
077. Свежая краска
078. Новый вентилятор Вика
079. Проделки лесоруба
080. Если долго нет дождя, будет ливень
081. Всю ночь на пролёт
082. Няня Вик
083. Радостный праздник весны
084. Модный медведь
085. Средневековое безумие
086. Незабываемый пикник
087. Светофор
088. Скатертью дорожка
089. Рождественская елка
090. Монетка
091. Цирк да и только
092. Игрушечный вертолёт
093. Бумеранг
094. И тень содрогнулась
095. Вик — стрелок
096. Волшебная шляпа
097. Жребий
098. Убирайтесь из моего дома!
099. Лучник Вик
100. Ты то, что ты ешь
101. Охота на роликах
102. Джазовый переполох
103. Баскетбол
104. Большой теннис
s1e23. Машина Вика. 1080p.x264.-merci-.mp4
Format : MPEG-4
Format profile : Base Media
Codec ID : isom (isom/iso2/avc1/mp41)
File size : 312 MiB
Duration : 13mn 1s
Overall bit rate : 3 349 Kbps
Writing application : Lavf55.19.102
Video
ID : 1
Format : AVC
Format/Info : Advanced Video Codec
Format profile : High@L4
Format settings, CABAC : Yes
Format settings, ReFrames : 3 frames
Codec ID : avc1
Codec ID/Info : Advanced Video Coding
Duration : 13mn 1s
Bit rate : 3 090 Kbps
Width : 1 920 pixels
Height : 1 080 pixels
Display aspect ratio : 16:9
Frame rate mode : Constant
Frame rate : 25.000 fps
Color space : YUV
Chroma subsampling : 4:2:0
Bit depth : 8 bits
Scan type : Progressive
Bits/(Pixel*Frame) : 0.060
Stream size : 288 MiB (92%)
Audio
ID : 2
Format : AAC
Format/Info : Advanced Audio Codec
Format profile : LC
Codec ID : 40
Duration : 13mn 1s
Bit rate mode : Constant
Bit rate : 254 Kbps
Channel(s) : 2 channels
Channel positions : Front: L R
Sampling rate : 44.1 KHz
Frame rate : 43.066 fps (1024 spf)
Compression mode : Lossy
Stream size : 23.6 MiB (8%)
Default : Yes
Alternate group : 1


Релиз от: -merci-



   Похожие торренты   Торрент   Размер 
В этой теме нет новых непрочитанных сообщений. Медведи-соседи / Boonie Bears [S01] (2010) WEBRip 720p от -merci- | D

38 | 30

15.87 ГБ

В этой теме нет новых непрочитанных сообщений. Медведи-соседи 2 / Boonie Bears or Bust [s02] (2012) WEBRip 1080p от -merci- | D

39 | 21

21.08 ГБ

В этой теме нет новых непрочитанных сообщений. Медведи-соседи 2 / Boonie Bears or Bust [S02] (2012) WEBRip 720p от -merci- | D

144 | 35

16.15 ГБ

В этой теме нет новых непрочитанных сообщений. Медведи - соседи / Boonie Bears [01-30] (2010-2012) SATRip

68 | 15

5.18 ГБ

В этой теме нет новых непрочитанных сообщений. Медведи - соседи / Boonie Bears [01-208 из 208] (2010-2014) WEB-DLRip от Generalfilm

66 | 61

30.51 ГБ

В этой теме нет новых непрочитанных сообщений. Медведи-соседи / Boonie Bears, to the Rescue! (2014) DVDRip | Лицензия

1161 | 60

1.37 ГБ

В этой теме нет новых непрочитанных сообщений. Медведи-соседи / Boonie Bears, to the Rescue! (2014) WEB-DLRip | iTunes

3460 | 94

1.37 ГБ




Вы не можете начинать темы
Вы не можете отвечать на сообщения
Вы не можете редактировать свои сообщения
Вы не можете удалять свои сообщения
Вы не можете добавлять вложения

Перейти:  
Для Мосгорсуда, Роскомнадзора и рекламодателей: mosgorsud-torrent[собачка]yandex.ru
 Вход
ppkBB3cker v.2 © 2008-2014 @ PPK
[ Time : 0.041s | 15 Queries | GZIP : On ]

Торрент трекер RUTOR.IN, Не можете зайти на rutor.org? Какой новый адрес рутор? Какое зеркало рутор? Не работает rutor.org и зеркала? Тогда наш торрент специально для вас. Rutor.in неофициальное зеркало rutor. В случае если у Вас заблокирован rutor или вдруг Вы не можете на него зайти, то Вы без труда сможете скачать бесплатно и без рекламы последние новинки кино, игр, сериалов и прочего у нас, на Rutor.in. Не нужно использовать прокси, чтобы зайти на рутор, достаточно воспользоваться нашим ресурсом. Все новые фильмы, игры, сериалы, книги и музыка за 2013 и 2014 годы через торрент бесплатно. Скачивайте фильмы в хорошем качестве, игры для пк, xbox, playstation без регистрации. У нас вы найдете новые Зарубежные сериалы и Русские сериалы 2013, 2014, 2015 годов. Оставайтесь с нами, качайте любимые фильмы, игры, сериалы, книги и музыку.