img image001 image001 image001 image001 image001 image001 image001 image001 image001 image001 image001 image001 image001 image001 image001

Planets Sun Sun Sun
Статистика раздачи
Автор: Nickolas3434 | Размер: 16.15 ГБ | Добавлен: 18 фев 2016
Раздают: 144    Качают: 35
Скачать торрент
Скачать торрент
Описание торрента

СообщениеДобавлено: 18 фев 2016 

Информация о фильме
Название: Медведи - соседи 2
Оригинальное название: Boonie Bears or Bust
Год выпуска: 2012
Страна: Китай
Жанр: мультсериал, приключения, комедия
Продолжительность: 104 x ~ 00:13:00
Перевод: Профессиональный (дублированный)
Русские субтитры: нет
Режиссёр: Леон Динг, Xuhui Xing
Роли озвучивали: Джастин Джозеф Вилер, Рик Джей Глен, Тони Томпсон, Ши Александр, Пол «Макс» Райнхарт
Описание: Как же здорово в заповедном лесу летом! Звери, птицы, букашки, всем мирно живётся там. Красота! И вот однажды в заповедном лесу появляется лесоруб. Этот маленький, злой и хитрый человек хочет вырубить весь лес! Загубить всю красоту природы! В его руках: ружьё и бензопила. Неужели его никто не сможет остановить и он вырубит весь лес?


Доп. информация:
Семпл


Файл
Формат: MP4
Качество: WEBRip 720p
Видео: MPEG4-AVC, 1280x658 (DAR: 1.945), 25.000 fps, 2 165 Kbps
Аудио: AAC-LC 2.0, 44.1 KHz, 192 kbps, (русский, дубляж)
Субтитры: отсутствуют
2 сезон (2012)
001. От лесоруба до охотника
002. Поймай медведя
003. Герберт против медведей
004. Мед! Мед!
005. Приключение на природе
006. Высокий полет
007. Заблудившаяся сова
008. Эта ловушка для тебя
009. Оборотень
010. Волшебная флейта
011. Лиловый фрукт
012. Спасите Брамбла
013. Бриару надо худеть
014. Командная работа
015. Беспокойный пикник
016. Все за яблоки
017. Нетерпеливый Брамбл
018. Элементарно, дорогой Тики
019. Битва за фрукты
020. Битва за еду
021. Обман
022. Чья шляпа красивее?
023. Спасение с утеса
024. Битва за боеприпасы
025. У Брамбла болят зубы
026. Каникулы Брамбла на Гавайях
027. Охота за сокровищами
028. Обещание лунного цветка
029. Шторм
030. Охотник Бриар против медведя Вики
031. Особая тренировка для Вика
032. Брат - близнец Уоррена
033. Убить добротой
034. Так уж сложилось
035. Серфинг на траве
036. Кто украл мою редиску?
037. Новый дом
038. Разбитые мечты
039. С новым годом!
040. Храбрая Санни
041. Стенания короля
042. Тыквенный монстр
043. Сияющий медведь
044. Красная шапочка
045. Слабительное или конфеты?
046. Оригами
047. Охотничье снаряжение
048. Следопыт -Экс- 9000
049. Бриар простудился
050. Король гимнастики
051. Ягодная война
052. Добро пожаловать в новый свет
053. В городе
054. Пожалуйста, давай останемся
055. Уличное выступление
056. Фейерверк для Наташи
057. Драгоценная ваза Шаолиня
058. Пугало
059. Битва с Ванькой - встанькой
060. Черный фестиваль
061. Топор правосудия
062. Небесные войны
063. Кукольное представление
064. Гонки Рикшей
065. Юрта - это не дом
066. Рисовый пирог
067. Смертельный удар
068. Как делать вино?
069. Яблоки Тофи
070. Связующая кукуруза. Часть 1
071. Связующая кукуруза. Часть 2
072. Ходули
073. Танцующие медведи
074. Конкурс искусств
075. Легенда о пастухе и ткачихе
076. Праздник барабанов
077. Чемпион соревнований по цветочным шарам
078. Фестиваль лодок-драконов
079. Фестиваль факелов
080. Ганодерма
081. Конкурс танцев дракона
082. Танцевальный конкурс
083. Кто сидит в носилках?
084. Игра
085. Лопата Югонга
086. Кому больше везет?
087. Сила бумажных фонариков
088. Король обезьян и принцесса железный веер
089. Иглоукалывание
090. Монгольская борьба
091. Отличное новое оружие охотника Вика
092. Как поймать цикаду?
093. Конкурс
094. Чудесное средство
095. Воздушные змеи
096. Трамплин
097. Кунг-Фу Медведи
098. Битва за глиняного воина
099. Соревнования по цуцзюй
100. Луи - Предсказатель будущего
101. Новогодний монстр
102. Форсаж
103. Король Пельменей
104. Липкий Тофу
General
Complete name : Q:!Qm-enМедведи-соседи.1-2s.720-1080Медведи-соседи.2s.720p.x264.-merci-s2e35. Серфинг на траве. 720p.x264.-merci-.mp4
Format : MPEG-4
Format profile : Base Media / Version 2
Codec ID : mp42 (isom/mp42)
File size : 220 MiB
Duration : 13mn 1s
Overall bit rate mode : Variable
Overall bit rate : 2 360 Kbps
Encoded date : UTC 2015-06-20 08:20:42
Tagged date : UTC 2015-06-20 08:20:42
gsst : 0
gstd : 781420
gssd : BADC23A8BHM1438019140286188
gshh : r11---sn-n8v7lne7.googlevideo.com
Video
ID : 1
Format : AVC
Format/Info : Advanced Video Codec
Format profile : High@L3.1
Format settings, CABAC : Yes
Format settings, ReFrames : 1 frame
Format settings, GOP : M=1, N=60
Codec ID : avc1
Codec ID/Info : Advanced Video Coding
Duration : 13mn 1s
Bit rate : 2 165 Kbps
Maximum bit rate : 9 632 Kbps
Width : 1 280 pixels
Height : 658 pixels
Display aspect ratio : 1.945
Frame rate mode : Constant
Frame rate : 25.000 fps
Color space : YUV
Chroma subsampling : 4:2:0
Bit depth : 8 bits
Scan type : Progressive
Bits/(Pixel*Frame) : 0.103
Stream size : 202 MiB (92%)
Tagged date : UTC 2015-06-20 08:20:55
Audio
ID : 2
Format : AAC
Format/Info : Advanced Audio Codec
Format profile : LC
Codec ID : 40
Duration : 13mn 1s
Bit rate mode : Variable
Bit rate : 192 Kbps
Maximum bit rate : 201 Kbps
Channel(s) : 2 channels
Channel positions : Front: L R
Sampling rate : 44.1 KHz
Frame rate : 43.066 fps (1024 spf)
Compression mode : Lossy
Stream size : 17.9 MiB (8%)
Title : IsoMedia File Produced by Google, 5-11-2011
Language : English
Encoded date : UTC 2015-06-20 08:20:45
Tagged date : UTC 2015-06-20 08:20:55


Релиз от: -merci-



   Похожие торренты   Торрент   Размер 
В этой теме нет новых непрочитанных сообщений. Медведи-соседи 2 / Boonie Bears or Bust [s02] (2012) WEBRip 1080p от -merci- | D

39 | 20

21.08 ГБ

В этой теме нет новых непрочитанных сообщений. Медведи-соседи / Boonie Bears [S01] (2010) WEBRip 720p от -merci- | D

38 | 30

15.87 ГБ

В этой теме нет новых непрочитанных сообщений. Медведи-соседи / Boonie Bears [s01] (2010) WEBRip 1080p от -merci- | D

14 | 6

24.68 ГБ

В этой теме нет новых непрочитанных сообщений. Медведи - соседи / Boonie Bears [01-30] (2010-2012) SATRip

68 | 15

5.18 ГБ

В этой теме нет новых непрочитанных сообщений. Медведи - соседи / Boonie Bears [01-208 из 208] (2010-2014) WEB-DLRip от Generalfilm

66 | 61

30.51 ГБ

В этой теме нет новых непрочитанных сообщений. Медведи-соседи / Boonie Bears, to the Rescue! (2014) DVDRip | Лицензия

1161 | 60

1.37 ГБ

В этой теме нет новых непрочитанных сообщений. Медведи-соседи / Boonie Bears, to the Rescue! (2014) WEB-DLRip | iTunes

3460 | 94

1.37 ГБ




Вы не можете начинать темы
Вы не можете отвечать на сообщения
Вы не можете редактировать свои сообщения
Вы не можете удалять свои сообщения
Вы не можете добавлять вложения

Перейти:  
Для Мосгорсуда, Роскомнадзора и рекламодателей: mosgorsud-torrent[собачка]yandex.ru
 Вход
ppkBB3cker v.2 © 2008-2014 @ PPK
[ Time : 1.164s | 17 Queries | GZIP : Off ]

Торрент трекер RUTOR.IN, Не можете зайти на rutor.org? Какой новый адрес рутор? Какое зеркало рутор? Не работает rutor.org и зеркала? Тогда наш торрент специально для вас. Rutor.in неофициальное зеркало rutor. В случае если у Вас заблокирован rutor или вдруг Вы не можете на него зайти, то Вы без труда сможете скачать бесплатно и без рекламы последние новинки кино, игр, сериалов и прочего у нас, на Rutor.in. Не нужно использовать прокси, чтобы зайти на рутор, достаточно воспользоваться нашим ресурсом. Все новые фильмы, игры, сериалы, книги и музыка за 2013 и 2014 годы через торрент бесплатно. Скачивайте фильмы в хорошем качестве, игры для пк, xbox, playstation без регистрации. У нас вы найдете новые Зарубежные сериалы и Русские сериалы 2013, 2014, 2015 годов. Оставайтесь с нами, качайте любимые фильмы, игры, сериалы, книги и музыку.