img image001 image001 image001 image001 image001 image001 image001 image001 image001 image001 image001 image001 image001 image001 image001

Planets Sun Sun Sun
Статистика раздачи
Автор: Nickolas3434 | Размер: 2.15 ГБ | Добавлен: 18 фев 2016
Раздают: 33    Качают: 8
Скачать торрент
Скачать торрент
Описание торрента

СообщениеДобавлено: 18 фев 2016 

Информация о фильме
Название: Бумажки
Год выхода: 2015
Страна: Россия, Паровоз
Жанр: Мультсериал, детский, семейный, приключения
Продолжительность: 31 x ~ 00:05:30
Перевод: не требуется
Режиссер: Алексей Миронов, Артур Толстобров, Кирилл Кравченко,
В ролях: Андрей Рожков
О фильме:
Новый обучающий анимационный сериал для детей, рассказывающий о приключениях бумажных героев в мире, который тоже целиком состоит из бумаги. Мультфильм учит детей доброте и в нём есть практичные вставки, где показано как сделать из бумаги и клея персонажей сериала. Задумка авторов состоит в том, чтобы помочь творческому и умственному развитию малышей.
Доп. информация: премьера (РФ) - 21 марта 2015, «Мульт в кино»
/ Семпл
Файл
Формат: AVI
Качество: WEBRip
Видео: 720x400 (1.80:1), 25 fps, XviD build 65 ~1600 kbps avg, 0.22 bit/pixel
Звук: 48 kHz, AC3 Dolby Digital, 2/0 (L,R) ch, ~192.00 kbps avg
Субтитры: нет
01. Заяц или кот
02. С днем рождения, птенчики
03. Игрушка для Зюйд-ВестаЗюйд-Вестом
04. Лучший изобретатель
05. На высоте
06. Букет для королевы
07. Под крышей дома
08. Королева хочет домой
09. Пикник в обеденное время
10. Пришелец с Фольгундии
11. Полезное Насекомое
12. Снова праздник!
13. Подвиг капитана Тюка
14. Новый сосед
15. Живые цветы
16. Знакомый незнакомец
17. За бумажным морем
18. Приходите на концерт
19. Розовая клумба
20. Звёздная ночь
21. А был ли птенчик
22. Крокодиловы слезы
23. Удачный кадр
24. Сокровища бумажной пещеры
25. Серенький волчок
26. Перевернутая история
27. Дом с привидениями
28. Бумажное солнце
29. Бумажный концерт
30. Загадочное письмо
31. Птица удачи
13. Подвиг капитана Тюка. XviD.-merci-.avi
Format : AVI
Format/Info : Audio Video Interleave
File size : 70.9 MiB
Duration : 5mn 30s
Overall bit rate : 1 803 Kbps
Writing application : VirtualDubMod 1.5.10.3 | www.virtualdub-fr.org || (build 2550/release)
Writing library : VirtualDubMod build 2550/release
Video
ID : 0
Format : MPEG-4 Visual
Format profile : Advanced Simple@L5
Format settings, BVOP : 1
Format settings, QPel : No
Format settings, GMC : No warppoints
Format settings, Matrix : Default (MPEG)
Codec ID : XVID
Codec ID/Hint : XviD
Duration : 5mn 30s
Bit rate : 1 601 Kbps
Width : 720 pixels
Height : 400 pixels
Display aspect ratio : 16:9
Frame rate : 25.000 fps
Color space : YUV
Chroma subsampling : 4:2:0
Bit depth : 8 bits
Scan type : Progressive
Compression mode : Lossy
Bits/(Pixel*Frame) : 0.222
Stream size : 63.0 MiB (89%)
Writing library : XviD 65
Audio
ID : 1
Format : AC-3
Format/Info : Audio Coding 3
Mode extension : CM (complete main)
Format settings, Endianness : Big
Codec ID : 2000
Duration : 5mn 30s
Bit rate mode : Constant
Bit rate : 192 Kbps
Channel(s) : 2 channels
Channel positions : Front: L R
Sampling rate : 48.0 KHz
Frame rate : 31.250 fps (1536 spf)
Compression mode : Lossy
Stream size : 7.55 MiB (11%)
Alignment : Split accross interleaves
Interleave, duration : 40 ms (1.00 video frame)
Interleave, preload duratio : 500 ms


Релиз от: -merci-



   Похожие торренты   Торрент   Размер 
В этой теме нет новых непрочитанных сообщений. Бумажки [01-28] (2015) WEBRip 720p от -merci-

122 | 4

1.84 ГБ

В этой теме нет новых непрочитанных сообщений. Бумажки [01-30] (2015) WEBRip 720p от -merci-

101 | 8

1.98 ГБ

В этой теме нет новых непрочитанных сообщений. Бумажки [01-31] (2015) WEBRip 720p от -merci-

68 | 25

2.05 ГБ

В этой теме нет новых непрочитанных сообщений. Бумажки [01-27] (2015) WEBRip 720p от -merci-

271 | 11

1.77 ГБ

В этой теме нет новых непрочитанных сообщений. Бумажки [01-32] (2015) WEB-DLRip от -merci-

95 | 5

2.22 ГБ

В этой теме нет новых непрочитанных сообщений. Бумажки [01-32] (2015) WEB-DLRip 720p от -merci-

265 | 49

2.12 ГБ

В этой теме нет новых непрочитанных сообщений. Малышарики [01-15 из ?] (2015) WEBRip от -merci-

278 | 16

535.23 МБ




Вы не можете начинать темы
Вы не можете отвечать на сообщения
Вы не можете редактировать свои сообщения
Вы не можете удалять свои сообщения
Вы не можете добавлять вложения

Перейти:  
Для Мосгорсуда, Роскомнадзора и рекламодателей: mosgorsud-torrent[собачка]yandex.ru
 Вход
ppkBB3cker v.2 © 2008-2014 @ PPK
[ Time : 0.024s | 17 Queries | GZIP : Off ]

Торрент трекер RUTOR.IN, Не можете зайти на rutor.org? Какой новый адрес рутор? Какое зеркало рутор? Не работает rutor.org и зеркала? Тогда наш торрент специально для вас. Rutor.in неофициальное зеркало rutor. В случае если у Вас заблокирован rutor или вдруг Вы не можете на него зайти, то Вы без труда сможете скачать бесплатно и без рекламы последние новинки кино, игр, сериалов и прочего у нас, на Rutor.in. Не нужно использовать прокси, чтобы зайти на рутор, достаточно воспользоваться нашим ресурсом. Все новые фильмы, игры, сериалы, книги и музыка за 2013 и 2014 годы через торрент бесплатно. Скачивайте фильмы в хорошем качестве, игры для пк, xbox, playstation без регистрации. У нас вы найдете новые Зарубежные сериалы и Русские сериалы 2013, 2014, 2015 годов. Оставайтесь с нами, качайте любимые фильмы, игры, сериалы, книги и музыку.