img image001 image001 image001 image001 image001 image001 image001 image001 image001 image001 image001 image001 image001 image001 image001

Planets Sun Sun Sun
Статистика раздачи
Автор: Nickolas3434 | Размер: 497.35 МБ | Добавлен: 20 фев 2016
Раздают: 736    Качают: 47
Скачать торрент
Скачать торрент
Описание торрента

СообщениеДобавлено: 20 фев 2016 


Информация о фильме
Название: Буба
Год выпуска: 2015
Жанр: Мультсериал, детский, приключения, комедия
Режиссер: Сергей Горобец
Роли озвучивал: Роман Карев
О фильме:
А вы верите в домовых или когда-нибудь задумывались, почему вещи лежат не там, где вы их оставили? Буба – забавный и легкий мультфильм для детей и взрослых, состоящий из нескольких коротких серий. Главный герой мультика – веселый домовой, который из-за своего чрезмерного любопытства постоянно попадает в передряги. Живет Буба в доме своих хозяев, которым сам того не желая, своими проделками доставляет массу хлопот. Он постоянно изучает их вещи и предметы декора, которые непременно ломаются, падают и летят в разные стороны, после чего начинается хаос и беспорядок. В каждой серии домовенок оказывается в разном помещении: это кухня, спальня, офис, ванная или детская, где с ним происходит множество забавных случаев. Буба не разговаривает, а только произносит забавные звуки, чтобы выразить свои эмоции и настроение. Веселый и добрый мультфильм о приключениях домового Бубы будет интересен даже самым маленьким деткам до годика и придется по вкусу даже взрослым. Чтобы занять и развеселить вашего малыша, познакомьте его с весельчаком домовым Бубой.
Выпущено: Россия, Sparrow
Продолжительность: 8 х ~ 00:03:07
Перевод: не требуется
Файл
Кодек: x264
Качество: WEB-DLRip (720p)
Видео: MPEG-4 AVC, ~ 3000 Кбит/с, 1280x720
Аудио: АС3, 2 ch, 192 Кбит/с
Общее
Уникальный идентификатор : 234452893197554997742297576680811856445 (0xB061FC18F3BF1E4ABF44BA438433023D)
Полное имя : D:ВидеоBooBa. WEB-DLRip (720p)BooBa-seriya1 - Кухня. WEB-DLRip (720p).mkv
Формат : Matroska
Версия формата : Version 4 / Version 2
Размер файла : 73,0 Мбайт
Продолжительность : 3 м. 8 с.
Общий поток : 3242 Кбит/сек
Дата кодирования : UTC 2016-02-20 12:13:15
Программа кодирования : mkvmerge v8.8.0 ('Wind at my back') 64bit
Библиотека кодирования : libebml v1.3.3 + libmatroska v1.4.4
DURATION : 00:03:08.832000000
NUMBER_OF_FRAMES : 5901
NUMBER_OF_BYTES : 4531968
_STATISTICS_WRITING_APP : mkvmerge v8.8.0 ('Wind at my back') 64bit
_STATISTICS_WRITING_DATE_UTC : 2016-02-20 12:13:15
_STATISTICS_TAGS : BPS DURATION NUMBER_OF_FRAMES NUMBER_OF_BYTES
Видео
Идентификатор : 1
Формат : AVC
Формат/Информация : Advanced Video Codec
Профиль формата : High@L4.0
Параметр CABAC формата : Да
Параметр ReFrames формата : 8 кадров
Идентификатор кодека : V_MPEG4/ISO/AVC
Продолжительность : 3 м. 8 с.
Битрейт : 2985 Кбит/сек
Ширина : 1280 пикселей
Высота : 720 пикселей
Соотношение сторон : 16:9
Режим частоты кадров : Постоянный
Частота кадров : 25,000 кадров/сек
Цветовое пространство : YUV
Субдискретизация насыщенности : 4:2:0
Битовая глубина : 8 бит
Тип развёртки : Прогрессивная
Бит/(Пиксели*Кадры) : 0.130
Размер потока : 67,2 Мбайт (92%)
Библиотека кодирования : x264 core 142 r2455 021c0dc
Настройки программы : cabac=1 / ref=8 / deblock=1:-1:-1 / analyse=0x3:0x133 / me=umh / subme=9 / psy=1 / psy_rd=1.00:0.15 / mixed_ref=1 / me_range=16 / chroma_me=1 / trellis=2 / 8x8dct=1 / cqm=0 / deadzone=21,11 / fast_pskip=1 / chroma_qp_offset=-3 / threads=6 / lookahead_threads=1 / sliced_threads=0 / nr=0 / decimate=1 / interlaced=0 / bluray_compat=0 / constrained_intra=0 / bframes=3 / b_pyramid=2 / b_adapt=2 / b_bias=0 / direct=3 / weightb=1 / open_gop=0 / weightp=2 / keyint=250 / keyint_min=25 / scenecut=40 / intra_refresh=0 / rc_lookahead=60 / rc=crf / mbtree=1 / crf=17.0 / qcomp=0.60 / qpmin=0 / qpmax=69 / qpstep=4 / vbv_maxrate=3600 / vbv_bufsize=3600 / crf_max=0.0 / nal_hrd=none / filler=0 / ip_ratio=1.40 / aq=1:1.00
Default : Да
Forced : Нет
Аудио
Идентификатор : 2
Формат : AC-3
Формат/Информация : Audio Coding 3
Расширение режима : CM (complete main)
Параметр Endianness формата : Big
Идентификатор кодека : A_AC3
Продолжительность : 3 м. 8 с.
Вид битрейта : Постоянный
Битрейт : 192 Кбит/сек
Каналы : 2 канала
Расположение каналов : Front: L R
Частота : 48,0 КГц
Битовая глубина : 16 бит
Метод сжатия : С потерями
Размер потока : 4,32 Мбайт (6%)
Default : Да
Forced : Нет



Релиз от:



   Похожие торренты   Торрент   Размер 
В этой теме нет новых непрочитанных сообщений. Буба (booba) [1-16] (2014-2016) WEB-DLRip 720p от ExKinoRay

203 | 44

1.21 ГБ

В этой теме нет новых непрочитанных сообщений. Буба (booba) [1-13 + Бонусы] (2014-2016) WEB-DLRip 720p от ExKinoRay

123 | 13

559.9 МБ

В этой теме нет новых непрочитанных сообщений. Буба (booba) [1-13 + Бонусы] (2014-2016) WEB-DLRip 720p от ExKinoRay

27 | 11

593.41 МБ

В этой теме нет новых непрочитанных сообщений. Буба (booba) [1-13 + Бонусы] (2014-2016) WEB-DLRip от ExKinoRay

44 | 4

624.32 МБ

В этой теме нет новых непрочитанных сообщений. Буба (booba) [1-13 + Бонусы] (2014-2016) WEB-DLRip от ExKinoRay

86 | 12

582.29 МБ

В этой теме нет новых непрочитанных сообщений. Буба (booba) [1-13 + Бонусы] (2014-2016) WEB-DLRip 1080p от ExKinoRay

127 | 13

975.38 МБ

В этой теме нет новых непрочитанных сообщений. Буба (booba) [1-13 + Бонусы] (2014-2016) WEB-DLRip 1080p от ExKinoRay

27 | 9

1.01 ГБ




Вы не можете начинать темы
Вы не можете отвечать на сообщения
Вы не можете редактировать свои сообщения
Вы не можете удалять свои сообщения
Вы не можете добавлять вложения

Перейти:  
Для Мосгорсуда, Роскомнадзора и рекламодателей: mosgorsud-torrent[собачка]yandex.ru
 Вход
ppkBB3cker v.2 © 2008-2014 @ PPK
[ Time : 0.041s | 14 Queries | GZIP : Off ]

Торрент трекер RUTOR.IN, Не можете зайти на rutor.org? Какой новый адрес рутор? Какое зеркало рутор? Не работает rutor.org и зеркала? Тогда наш торрент специально для вас. Rutor.in неофициальное зеркало rutor. В случае если у Вас заблокирован rutor или вдруг Вы не можете на него зайти, то Вы без труда сможете скачать бесплатно и без рекламы последние новинки кино, игр, сериалов и прочего у нас, на Rutor.in. Не нужно использовать прокси, чтобы зайти на рутор, достаточно воспользоваться нашим ресурсом. Все новые фильмы, игры, сериалы, книги и музыка за 2013 и 2014 годы через торрент бесплатно. Скачивайте фильмы в хорошем качестве, игры для пк, xbox, playstation без регистрации. У нас вы найдете новые Зарубежные сериалы и Русские сериалы 2013, 2014, 2015 годов. Оставайтесь с нами, качайте любимые фильмы, игры, сериалы, книги и музыку.