img image001 image001 image001 image001 image001 image001 image001 image001 image001 image001 image001 image001 image001 image001 image001

Planets Sun Sun Sun
Статистика раздачи
Автор: Nickolas3434 | Размер: 6.54 ГБ | Добавлен: 22 фев 2016
Раздают: 147    Качают: 25
Скачать торрент
Скачать торрент
Описание торрента

СообщениеДобавлено: 22 фев 2016 


Информация о фильме
Название: Дорога на Эльдорадо
Оригинальное название: The Road to El Dorado
Год выхода: 2000
Жанр: Комедия, приключения, семейный, мультфильм
Режиссер: Бибо Бержерон, Уилл Финн, Дон Пол
В ролях: Кевин Клайн, Кеннет Брэна, Рози Перес, Арманд Ассанте, Эдвард Джеймс Олмос, Джим Каммингс, Фрэнк Уэлкер, Тобин Белл
О фильме: Тульо и Мигель, герои этой полнометражной мультипликационной картины, предпочитают не зарабатывать деньги тяжелым трудом. Эти два отпетых мошенника обожают, когда золотишко само идет к ним в руки. Случилось так, что этим проходимцам крупно повезло.
Им посчастливилось найти таинственную карту, на которой обозначен величественный Город Золота, мифический Эльдорадо. Вместе со знаменитым конкистадором Эрнаном Кортесом приятели отправляются в рискованное путешествием за сокровищами к берегам далекой Америки.
Страна: США
Продолжительность: 01:29:26
Перевод: Профессиональный (дублированный)

Файл
Кодек: MPEG-4 AVC
Качество: WEB-DL 1080p
Видео: 10 Мбит/с, 1920х1080
Звук: Русский (AC3, 2 ch, 192 Кбит/с), Английский (AC3, 6 ch, 448 Кбит/с)
Субтитры: Русские, английские
Семпл


Общее
Уникальный идентификатор : 210178350238760118201452315885595634110 (0x9E1EE0BA090A6291B6CB2796FA75A9BE)
Полное имя : D:Дорога.на.Эльдорадо.2000.WEB-DL.1080p.Rus.Eng.mkv
Формат : Matroska
Версия формата : Version 4 / Version 2
Размер файла : 6,54 Гбайт
Продолжительность : 1 ч. 29 м.
Общий поток : 10,5 Мбит/сек
Дата кодирования : UTC 2016-02-19 13:57:17
Программа кодирования : mkvmerge v8.2.0 ('World of Adventure') 64bit
Библиотека кодирования : libebml v1.3.1 + libmatroska v1.4.2
DURATION : 01:29:26.528000000
NUMBER_OF_FRAMES : 167704
NUMBER_OF_BYTES : 128796672
_STATISTICS_WRITING_APP : mkvmerge v8.2.0 ('World of Adventure') 64bit
_STATISTICS_WRITING_DATE_UTC : 2016-02-19 13:57:17
_STATISTICS_TAGS : BPS DURATION NUMBER_OF_FRAMES NUMBER_OF_BYTES
Видео
Идентификатор : 1
Формат : AVC
Формат/Информация : Advanced Video Codec
Профиль формата : High@L4.0
Параметр CABAC формата : Да
Параметр ReFrames формата : 4 кадра
Идентификатор кодека : V_MPEG4/ISO/AVC
Продолжительность : 1 ч. 29 м.
Вид битрейта : Постоянный
Битрейт : 10000 Кбит/сек
Ширина : 1920 пикселей
Высота : 1080 пикселей
Соотношение сторон : 16:9
Режим частоты кадров : Постоянный
Частота кадров : 23,976 кадра/сек
Цветовое пространство : YUV
Субдискретизация насыщенности : 4:2:0
Битовая глубина : 8 бит
Тип развёртки : Прогрессивная
Бит/(Пиксели*Кадры) : 0.201
Размер потока : 6,01 Гбайт (92%)
Язык : English
Default : Да
Forced : Нет
Основные цвета : BT.709
Характеристики трансфера : BT.709
Коэффициенты матрицы : BT.709
Аудио #1
Идентификатор : 2
Формат : AC-3
Формат/Информация : Audio Coding 3
Расширение режима : CM (complete main)
Параметр Endianness формата : Big
Идентификатор кодека : A_AC3
Продолжительность : 1 ч. 29 м.
Вид битрейта : Постоянный
Битрейт : 192 Кбит/сек
Каналы : 2 канала
Расположение каналов : Front: L R
Частота : 48,0 КГц
Битовая глубина : 16 бит
Метод сжатия : С потерями
Размер потока : 123 Мбайт (2%)
Заголовок : Профессиональный (дублированный)
Язык : Russian
Default : Да
Forced : Да
Аудио #2
Идентификатор : 3
Формат : AC-3
Формат/Информация : Audio Coding 3
Расширение режима : CM (complete main)
Параметр Endianness формата : Big
Идентификатор кодека : A_AC3
Продолжительность : 1 ч. 29 м.
Вид битрейта : Постоянный
Битрейт : 448 Кбит/сек
Каналы : 6 каналов
Расположение каналов : Front: L C R, Side: L R, LFE
Частота : 48,0 КГц
Битовая глубина : 16 бит
Метод сжатия : С потерями
Размер потока : 287 Мбайт (4%)
Язык : English
Default : Нет
Forced : Нет
Текст #1
Идентификатор : 4
Формат : UTF-8
Идентификатор кодека : S_TEXT/UTF8
Идентификатор кодека/Информация : UTF-8 Plain Text
Язык : English
Default : Нет
Forced : Нет
Текст #2
Идентификатор : 5
Формат : ASS
Идентификатор кодека : S_TEXT/ASS
Идентификатор кодека/Информация : Advanced Sub Station Alpha
Метод сжатия : Без потерь
Язык : Russian
Default : Нет
Forced : Нет
Меню
00:00:00.000 : en:El Dorado (main titles)
00:04:03.000 : en:Loaded Dice
00:07:23.000 : en:Stowaways
00:10:38.000 : en:Overboard
00:14:02.000 : en:Beached
00:17:19.000 : en:The Trail We Blaze
00:20:28.000 : en:Great Big Rock
00:23:58.000 : en:Entering El Dorado
00:25:05.000 : en:Stopping the Volcano
00:30:15.000 : en:Cheldorado
00:34:46.000 : en:It's Tough to Be a God
00:37:23.000 : en:A Proper Tribute
00:42:27.000 : en:Three Days
00:46:31.000 : en:Age of the Jaguar
00:48:18.000 : en:Without Question
00:50:35.000 : en:Tzekel-kan's Advice
00:52:52.000 : en:Play Ball
00:57:48.000 : en:No Sacrifices
00:59:22.000 : en:Gods Don't Bleed
01:02:40.000 : en:Tulio and Chel - Deal
01:05:18.000 : en:Jaguar Attacks
01:10:02.000 : en:Tzekel-kan Emerges
01:11:34.000 : en:Friends Never Say Goodbye
01:14:43.000 : en:Cortes Approaches
01:16:59.000 : en:Got a Wave to Catch
01:19:46.000 : en:There's No El Dorado Here
01:21:12.000 : en:Follow That Trail
01:22:44.000 : en:Someday Out of the Blue (end credits)



   Похожие торренты   Торрент   Размер 
В этой теме нет новых непрочитанных сообщений. Дорога на Эльдорадо / The Road to El Dorado (2000) DVDRip | D

53 | 7

744.77 МБ

В этой теме нет новых непрочитанных сообщений. Дорога на Эльдорадо / The Road to El Dorado (2000) DVDRip | D

231 | 22

1.46 ГБ

В этой теме нет новых непрочитанных сообщений. Дорога на Эльдорадо / The Road to El Dorado (2000) DVDRip

96 | 12

700.5 МБ

В этой теме нет новых непрочитанных сообщений. Дорога на Эльдорадо / The Road to El Dorado (2000) HDDVDRip (720p)

68 | 12

4.11 ГБ

В этой теме нет новых непрочитанных сообщений. Gold & Glory: The Road to El Dorado (2000) PC

20 | 2

591.53 МБ

В этой теме нет новых непрочитанных сообщений. Эльдорадо / El Dorado (2009) SATRip

9 | 4

2.19 ГБ

В этой теме нет новых непрочитанных сообщений. Эльдорадо / El Dorado (2010) BDRip от HQCLUB

11 | 4

4.36 ГБ




Вы не можете начинать темы
Вы не можете отвечать на сообщения
Вы не можете редактировать свои сообщения
Вы не можете удалять свои сообщения
Вы не можете добавлять вложения

Перейти:  
Для Мосгорсуда, Роскомнадзора и рекламодателей: mosgorsud-torrent[собачка]yandex.ru
 Вход
ppkBB3cker v.2 © 2008-2014 @ PPK
[ Time : 0.041s | 14 Queries | GZIP : On ]

Торрент трекер RUTOR.IN, Не можете зайти на rutor.org? Какой новый адрес рутор? Какое зеркало рутор? Не работает rutor.org и зеркала? Тогда наш торрент специально для вас. Rutor.in неофициальное зеркало rutor. В случае если у Вас заблокирован rutor или вдруг Вы не можете на него зайти, то Вы без труда сможете скачать бесплатно и без рекламы последние новинки кино, игр, сериалов и прочего у нас, на Rutor.in. Не нужно использовать прокси, чтобы зайти на рутор, достаточно воспользоваться нашим ресурсом. Все новые фильмы, игры, сериалы, книги и музыка за 2013 и 2014 годы через торрент бесплатно. Скачивайте фильмы в хорошем качестве, игры для пк, xbox, playstation без регистрации. У нас вы найдете новые Зарубежные сериалы и Русские сериалы 2013, 2014, 2015 годов. Оставайтесь с нами, качайте любимые фильмы, игры, сериалы, книги и музыку.