img image001 image001 image001 image001 image001 image001 image001 image001 image001 image001 image001 image001 image001 image001 image001

Planets Sun Sun Sun
Статистика раздачи
Автор: Nickolas3434 | Размер: 20.68 ГБ | Добавлен: 22 фев 2016
Раздают: 132    Качают: 68
Скачать торрент
Скачать торрент
Описание торрента

СообщениеДобавлено: 22 фев 2016 


Информация о фильме
Название: Хранитель луны
Оригинальное название: Mune, le gardien de la lune
Год выпуска: 2014
Жанр: Мультфильм, семейный, приключения
Выпущено: Франция, Orange Studio, KinoLogy, Onyx Films
Режиссер: Александр Эбоян, Бенуа Филиппон
О фильме: На диковинной планете, где смена дня и ночи осуществляется вручную, юного фавна Мьюна неожиданно избирают хранителем Луны. Но к своему ужасу, он почти сразу теряет ее! Воспользовавшись этим, царь подземного мира Некрос крадет и гасит Солнце. Теперь, чтобы спасти планету, Мьюн вместе с отважной девочкой из воска Глим и заносчивым Сохоном, хранителем Солнца, должны отправиться в удивительное и опасное путешествие.

Файл
Качество: Blu-Ray Remux (1080p)
Видео: MPEG-4 AVC, 29500 Кбит/с, 1920x1080, 24 кадр/с
Аудио: Русский (AC3, 6 ch, 640 Кбит/с), (DTS, 6 ch, 1509 Кбит/с), украинский (AC3, 2 ch, 192 Кбит/с), итальянский (DTS-HD MA, 6 ch, 2425 Кбит/с)
Размер: 20.68 ГБ
Продолжительность: 01:26:24
Перевод: Дублированный
Субтитры: Итальянские
Сохранены оригинальные чаптеры как на Blu-Ray.
Озвучивание - Дублированное
Общее
Уникальный идентификатор : 185605500449254699104514011346626579363 (0x8BA251B19309C15BBAF4DC2B33B28BA3)
Полное имя : D:ЗагрузкиMune.Le.Gardien.De.La.Lune.2014.Ita.Transfer.BDRemux.(1080p).ExKinoRay.mkv
Формат : Matroska
Версия формата : Version 2
Размер файла : 20,7 Гбайт
Продолжительность : 1 ч. 26 м.
Режим общего битрейта : Переменный
Общий поток : 34,2 Мбит/сек
Название фильма : Хранитель луны.2014.Сборка: ollan
Дата кодирования : UTC 2016-02-21 16:09:41
Программа кодирования : mkvmerge v5.6.0 ('Kenya Kane') built on May 27 2012 16:44:04
Библиотека кодирования : libebml v1.2.3 + libmatroska v1.3.0
Видео
Идентификатор : 1
Формат : AVC
Формат/Информация : Advanced Video Codec
Профиль формата : High@L4.1
Параметр CABAC формата : Да
Параметр ReFrames формата : 4 кадра
Идентификатор кодека : V_MPEG4/ISO/AVC
Продолжительность : 1 ч. 26 м.
Вид битрейта : Переменный
Максимальный битрейт : 35,0 Мбит/сек
Ширина : 1920 пикселей
Высота : 1080 пикселей
Соотношение сторон : 16:9
Режим частоты кадров : Постоянный
Частота кадров : 24,000 кадра/сек
Стандарт вещания : NTSC
Цветовое пространство : YUV
Субдискретизация насыщенности : 4:2:0
Битовая глубина : 8 бит
Тип развёртки : Прогрессивная
Язык : Italian
Default : Да
Forced : Нет
Основные цвета : BT.709
Характеристики трансфера : BT.709
Коэффициенты матрицы : BT.709
Аудио #1
Идентификатор : 2
Формат : AC-3
Формат/Информация : Audio Coding 3
Расширение режима : CM (complete main)
Параметр Endianness формата : Big
Идентификатор кодека : A_AC3
Продолжительность : 1 ч. 26 м.
Вид битрейта : Постоянный
Битрейт : 640 Кбит/сек
Каналы : 6 каналов
Расположение каналов : Front: L C R, Side: L R, LFE
Частота : 48,0 КГц
Битовая глубина : 16 бит
Метод сжатия : С потерями
Размер потока : 396 Мбайт (2%)
Заголовок : Дублированный (BD RUS)
Язык : Russian
Default : Да
Forced : Нет
Аудио #2
Идентификатор : 3
Формат : AC-3
Формат/Информация : Audio Coding 3
Расширение режима : CM (complete main)
Параметр Endianness формата : Big
Идентификатор кодека : A_AC3
Продолжительность : 1 ч. 26 м.
Вид битрейта : Постоянный
Битрейт : 192 Кбит/сек
Каналы : 2 канала
Расположение каналов : Front: L R
Частота : 48,0 КГц
Битовая глубина : 16 бит
Метод сжатия : С потерями
Размер потока : 119 Мбайт (1%)
Заголовок : Дублированный
Язык : Ukrainian
Default : Нет
Forced : Нет
Аудио #3
Идентификатор : 4
Формат : DTS
Формат/Информация : Digital Theater Systems
Режим : 16
Параметр Endianness формата : Big
Идентификатор кодека : A_DTS
Продолжительность : 1 ч. 26 м.
Вид битрейта : Постоянный
Битрейт : 1509 Кбит/сек
Каналы : 6 каналов
Расположение каналов : Front: L C R, Side: L R, LFE
Частота : 48,0 КГц
Битовая глубина : 24 бит
Метод сжатия : С потерями
Размер потока : 933 Мбайт (4%)
Заголовок : Дублированный (BD RUS)
Язык : Russian
Default : Нет
Forced : Нет
Аудио #4
Идентификатор : 5
Формат : DTS
Формат/Информация : Digital Theater Systems
Профиль формата : MA / Core
Режим : 16
Параметр Endianness формата : Big
Идентификатор кодека : A_DTS
Продолжительность : 1 ч. 26 м.
Вид битрейта : Переменный
Битрейт : Неизвестно / 1509 Кбит/сек
Каналы : 6 каналов
Расположение каналов : Front: L C R, Side: L R, LFE
Частота : 48,0 КГц
Битовая глубина : 16 бит
Метод сжатия : Без потерь / Lossy
Язык : Italian
Default : Нет
Forced : Нет
Текст
Идентификатор : 6
Формат : UTF-8
Идентификатор кодека : S_TEXT/UTF8
Идентификатор кодека/Информация : UTF-8 Plain Text
Заголовок : SDH
Язык : Italian
Default : Нет
Forced : Нет
Меню
00:00:00.000 : it:Chapter 01
00:07:32.458 : it:Chapter 02
00:14:10.416 : it:Chapter 03
00:20:27.000 : it:Chapter 04
00:26:27.000 : it:Chapter 05
00:33:00.250 : it:Chapter 06
00:39:01.833 : it:Chapter 07
00:45:15.458 : it:Chapter 08
00:52:23.250 : it:Chapter 09
00:59:31.958 : it:Chapter 10
01:06:21.750 : it:Chapter 11
01:14:14.791 : it:Chapter 12
01:26:07.000 : it:Chapter 13
01:26:23.541 : it:Chapter 14





Релиз от: Сборка:



   Похожие торренты   Торрент   Размер 
В этой теме нет новых непрочитанных сообщений. Хранитель луны / Mune, le gardien de la lune (2014) BDRip от Kaztorrents | КПК | ITA Transfer | Лицензия

70 | 5

390.08 МБ

В этой теме нет новых непрочитанных сообщений. Хранитель луны 2D, 3D / Mune, le gardien de la lune 2D, 3D (2014) BDRemux | 2D|3D-Video | D | Лицензия

49 | 7

21.83 ГБ

В этой теме нет новых непрочитанных сообщений. Хранитель Луны / Mune, le gardien de la lune (2014) BDRip-AVC от ExKinoRay | Лицензия

703 | 74

1.79 ГБ

В этой теме нет новых непрочитанных сообщений. Хранитель луны / Mune, le gardien de la lune (2014) BDRip 1080p | Лицензия

2112 | 225

4.07 ГБ

В этой теме нет новых непрочитанных сообщений. Хранитель Луны / Mune, le gardien de la lune (2014) Blu-Ray | Лицензия

201 | 28

16.18 ГБ

В этой теме нет новых непрочитанных сообщений. Хранитель луны / Mune, le gardien de la lune (2014) HDRip | КПК | Лицензия

97 | 7

375 МБ

В этой теме нет новых непрочитанных сообщений. Хранитель луны / Mune, le gardien de la lune (2014) WEB-DL 1080p | iTunes

3565 | 169

2.78 ГБ




Вы не можете начинать темы
Вы не можете отвечать на сообщения
Вы не можете редактировать свои сообщения
Вы не можете удалять свои сообщения
Вы не можете добавлять вложения

Перейти:  
Для Мосгорсуда, Роскомнадзора и рекламодателей: mosgorsud-torrent[собачка]yandex.ru
 Вход
ppkBB3cker v.2 © 2008-2014 @ PPK
[ Time : 0.045s | 14 Queries | GZIP : Off ]

Торрент трекер RUTOR.IN, Не можете зайти на rutor.org? Какой новый адрес рутор? Какое зеркало рутор? Не работает rutor.org и зеркала? Тогда наш торрент специально для вас. Rutor.in неофициальное зеркало rutor. В случае если у Вас заблокирован rutor или вдруг Вы не можете на него зайти, то Вы без труда сможете скачать бесплатно и без рекламы последние новинки кино, игр, сериалов и прочего у нас, на Rutor.in. Не нужно использовать прокси, чтобы зайти на рутор, достаточно воспользоваться нашим ресурсом. Все новые фильмы, игры, сериалы, книги и музыка за 2013 и 2014 годы через торрент бесплатно. Скачивайте фильмы в хорошем качестве, игры для пк, xbox, playstation без регистрации. У нас вы найдете новые Зарубежные сериалы и Русские сериалы 2013, 2014, 2015 годов. Оставайтесь с нами, качайте любимые фильмы, игры, сериалы, книги и музыку.