img image001 image001 image001 image001 image001 image001 image001 image001 image001 image001 image001 image001 image001 image001 image001

Planets Sun Sun Sun
Статистика раздачи
Автор: Nickolas3434 | Размер: 1.33 ГБ | Добавлен: 23 фев 2016
Раздают: 209    Качают: 12
Скачать торрент
Скачать торрент
Описание торрента

СообщениеДобавлено: 23 фев 2016 

Информация о фильме
Название: Защитники
Год выпуска: 2015
Страна: Россия, студия «Задорин Интертеймент»
Жанр: мультсериал, комедия, приключения, семейный
Продолжительность: 8 х ~ 00:13:41
Перевод: Не требуется
Русские субтитры: нет
Режиссёр: Екатерина Гроховская
Продюсер: Игорь Задорин
Роли озвучивали: Диомид Виноградов (Малитас, Тимор, Хоррор), Глеб Кулагин (Макс), Василиса Эльдарова (Кира), Анастасия Макарова (Вика), Данила Барсуков (Большой), Андрей Силаев (Мелкий), Сергей Юдахин (Алик), Антон Колесников (Бак), Дмитрий Курта (голос за кадром)
Описание: В обычной российской глубинке живут шестеро друзей. На первый взгляд они простые школьники, и лишь немногие знают, что эти восьмилетние ребята – последняя надежда нашей планеты. Враждебные инопланетяне готовятся поработить Землю и уже выслали передовой отряд из трёх пришельцев, чтобы подготовить зону высадки как раз на месте городка наших героев! Что ж, коварных инопланетян ждёт большой сюрприз...
01. Астероид
02. Пчелороботы
03. Плакучие конфеты
04. Землетрясение
05. День рождения Тёмы
06. Урок послушания
07. Клоны и антиклоны
08. Солнечный удар



Доп. информация: Премьера мультсериала «Защитники» состоялась 27 декабря 2015 года на телеканале «Мульт», показаны первые 8 серий. Всего в первом сезоне 26 серий, до конца 2016 года студия выпустит 16 серий.
Официальный сайт / Семпл /


Файл:
Формат: AVI
Качество: WEB-DLRip
Видео: 704x400 (1.76:1), 25 fps, XviD build 65 ~1599 kbps avg, 0.23 bit/pixel
Аудио: 48 kHz, AC3 Dolby Digital, 2/0 (L,R) ch, ~192.00 kbps avg
Субтитры: отсутствуют
01. Астероид. XviD.-merci-.avi
Format : AVI
Format/Info : Audio Video Interleave
File size : 179 MiB
Duration : 13mn 53s
Overall bit rate : 1 802 Kbps
Writing application : VirtualDubMod 1.5.10.3 | www.virtualdub-fr.org || (build 2550/release)
Writing library : VirtualDubMod build 2550/release
Video
ID : 0
Format : MPEG-4 Visual
Format profile : Advanced Simple@L5
Format settings, BVOP : 1
Format settings, QPel : No
Format settings, GMC : No warppoints
Format settings, Matrix : Default (MPEG)
Codec ID : XVID
Codec ID/Hint : XviD
Duration : 13mn 53s
Bit rate : 1 600 Kbps
Width : 704 pixels
Height : 400 pixels
Display aspect ratio : 16:9
Frame rate : 25.000 fps
Color space : YUV
Chroma subsampling : 4:2:0
Bit depth : 8 bits
Scan type : Progressive
Compression mode : Lossy
Bits/(Pixel*Frame) : 0.227
Stream size : 159 MiB (89%)
Writing library : XviD 65
Audio
ID : 1
Format : AC-3
Format/Info : Audio Coding 3
Mode extension : CM (complete main)
Format settings, Endianness : Big
Codec ID : 2000
Duration : 13mn 53s
Bit rate mode : Constant
Bit rate : 192 Kbps
Channel(s) : 2 channels
Channel positions : Front: L R
Sampling rate : 48.0 KHz
Frame rate : 31.250 fps (1536 spf)
Compression mode : Lossy
Stream size : 19.1 MiB (11%)
Alignment : Split accross interleaves
Interleave, duration : 40 ms (1.00 video frame)
Interleave, preload duratio : 500 ms


Релиз от: -merci-



   Похожие торренты   Торрент   Размер 
В этой теме нет новых непрочитанных сообщений. Защитники [01x01-08 из 26] (2015) WEB-DLRip 720p от -merci-

221 | 45

1.51 ГБ

В этой теме нет новых непрочитанных сообщений. Защитники [01x01-08 из 26] (2015) WEB-DLRip 1080p от -merci-

170 | 11

1.92 ГБ

В этой теме нет новых непрочитанных сообщений. Пингвиненок Пороро / Pororo The Little Penguin [01x01-52 из 52] (2007) WEB-DLRip от -merci- | D

177 | 14

4.45 ГБ

В этой теме нет новых непрочитанных сообщений. Жила-была царевна (01x01-05 + Бонусы) (2013) WEB-DLRip от -merci-

130 | 14

528.3 МБ

В этой теме нет новых непрочитанных сообщений. Маша и Медведь. Машкины страшилки [01x01-11] (2014-2016) DVDRip, WEB-DLRip от -merci-

109 | 22

985.78 МБ

В этой теме нет новых непрочитанных сообщений. Подружки из Хартлейк Сити / Friends: New Girl in Town [01x01-06] (2012-2014) WEB-DLRip от -merci-

73 | 11

1.86 ГБ

В этой теме нет новых непрочитанных сообщений. Ангел Бэби [01x01-16,02x17-19] (2015-2016) WEB-DL 720p от -merci-

208 | 21

3.63 ГБ




Вы не можете начинать темы
Вы не можете отвечать на сообщения
Вы не можете редактировать свои сообщения
Вы не можете удалять свои сообщения
Вы не можете добавлять вложения

Перейти:  
Для Мосгорсуда, Роскомнадзора и рекламодателей: mosgorsud-torrent[собачка]yandex.ru
 Вход
ppkBB3cker v.2 © 2008-2014 @ PPK
[ Time : 0.071s | 16 Queries | GZIP : Off ]

Торрент трекер RUTOR.IN, Не можете зайти на rutor.org? Какой новый адрес рутор? Какое зеркало рутор? Не работает rutor.org и зеркала? Тогда наш торрент специально для вас. Rutor.in неофициальное зеркало rutor. В случае если у Вас заблокирован rutor или вдруг Вы не можете на него зайти, то Вы без труда сможете скачать бесплатно и без рекламы последние новинки кино, игр, сериалов и прочего у нас, на Rutor.in. Не нужно использовать прокси, чтобы зайти на рутор, достаточно воспользоваться нашим ресурсом. Все новые фильмы, игры, сериалы, книги и музыка за 2013 и 2014 годы через торрент бесплатно. Скачивайте фильмы в хорошем качестве, игры для пк, xbox, playstation без регистрации. У нас вы найдете новые Зарубежные сериалы и Русские сериалы 2013, 2014, 2015 годов. Оставайтесь с нами, качайте любимые фильмы, игры, сериалы, книги и музыку.