img image001 image001 image001 image001 image001 image001 image001 image001 image001 image001 image001 image001 image001 image001 image001

Planets Sun Sun Sun
Статистика раздачи
Автор: Nickolas3434 | Размер: 3.18 ГБ | Добавлен: 25 фев 2016
Раздают: 237    Качают: 14
Скачать торрент
Скачать торрент
Описание торрента

СообщениеДобавлено: 25 фев 2016 


Информация о фильме
Название: Хоббит
Оригинальное название: The Hobbit
Год выхода: 1977
Жанр: мультфильм, мюзикл, фэнтези, приключения, семейный
Режиссер: Джулз Басс, Артур Ранкин мл.
В ролях: Орсон Бин, Ричард Бун, Ганс Конрид, Джон Хьюстон, Отто Преминджер, Сирил Ричард, Брава Теодор, Пол Фрис, Джек ДеЛеон, Дон Мессик
О фильме:
Экранизация сказки Дж. Р. Р. Толкина о необычайном путешествии хоббита Бильбо Бэггинса, волшебника Гэндальфа и компании гномов к Одинокой горе, где дракон Смог сторожит сокровища, исконно принадлежащие гномам.

Страна: США
Студия: ABC Video Enterprises Inc., Rankin/Bass Productions, Topcraft
Продолжительность: 01:17:25
Перевод: Профессиональный (многоголосый, закадровый) + Авторский (одноголосый, закадровый) Юрий Сербин + Авторский (одноголосый, закадровый) Сергей Визгунов + Авторский (одноголосый, закадровый) Алексей Михалёв + Авторский (одноголосый, закадровый) Александр Кашкин
Файл
Формат: Matroska
Видео: 990x720 at 23.976 fps, MPEG-4 AVC, ~4200 kbps avg
Аудио#1: Russian: 48 kHz, AC3, 1 ch, ~128.00 kbps avg |Многоголосый, закадровый|
Аудио#2: Russian: 48 kHz, AC3, 1 ch, ~192.00 kbps avg |Авторский, Ю.Сербин|
Аудио#3: Russian: 48 kHz, AC3, 1 ch, ~192.00 kbps avg |Авторский, С.Визгунов|
Аудио#4: Russian: 48 kHz, FLAC, 1 ch, ~419.00 kbps avg |Авторский, А.Михалёв|
Аудио#5: Russian: 48 kHz, FLAC, 1 ch, ~348.00 kbps avg |Авторский, А.Кашкин|
Аудио#6: English: 48 kHz, AC3, 1 ch, ~192.00 kbps avg |DVD R1|
Аудио#7: English: 48 kHz, AAC, 2/0 (L,R) ch, ~160.00 kbps avg
Субтитры: Russian, Ukrainian, English
***Сохранены оригинальные главы.
***Работа с WEB-DL и звуком: -Azureus-.
Мультфильм создан по мотивам повести Джона Рональда Руэла Толкина «Хоббит, или Туда и обратно» (The Hobbit, or There and Back Again, 1937).
[*]Первая песня гномов в Бэг Энд «Бей стаканы и тарелки, ведь как раз это Бильбо Бэггинс ненавидит» взята из книги. Толкин писал много песен в своих книгах, но лишь в форме стихов.
Общее
Уникальный идентификатор : 232238840976679492123312217238175569898 (0xAEB792E5201EED1F8B48DD6E55C157EA)
Полное имя : The Hobbit.1977.WEB-DL 720p.mkv
Формат : Matroska
Версия формата : Version 4 / Version 2
Размер файла : 3,18 Гбайт
Продолжительность : 1 ч. 17 м.
Режим общего битрейта : Переменный
Общий поток : 5880 Кбит/сек
Название фильма : The Hobbit.1977.WEB-DL 720p -Azureus-
Дата кодирования : UTC 2016-02-01 19:01:12
Программа кодирования : mkvmerge v7.1.0 ('Good Love') 32bit built on Jul 27 2014 12:59:18
Библиотека кодирования : libebml v1.3.0 + libmatroska v1.4.1
Видео
Идентификатор : 1
Формат : AVC
Формат/Информация : Advanced Video Codec
Профиль формата : High@L3.1
Параметр CABAC формата : Нет
Параметр ReFrames формата : 2 кадра
Идентификатор кодека : V_MPEG4/ISO/AVC
Продолжительность : 1 ч. 17 м.
Ширина : 990 пикселей
Высота : 720 пикселей
Соотношение сторон : 1,375
Режим частоты кадров : Постоянный
Частота кадров : 23,976 кадра/сек
Цветовое пространство : YUV
Субдискретизация насыщенности : 4:2:0
Битовая глубина : 8 бит
Тип развёртки : Прогрессивная
Язык : English
Default : Да
Forced : Нет
Цветовой диапазон : Limited
Основные цвета : BT.709
Характеристики трансфера : BT.709
Коэффициенты матрицы : BT.709
Аудио #1
Идентификатор : 2
Формат : AC-3
Формат/Информация : Audio Coding 3
Расширение режима : CM (complete main)
Параметр Endianness формата : Big
Идентификатор кодека : A_AC3
Продолжительность : 1 ч. 17 м.
Вид битрейта : Постоянный
Битрейт : 128 Кбит/сек
Каналы : 1 канал
Расположение каналов : Front: C
Частота : 48,0 КГц
Метод сжатия : С потерями
Размер потока : 70,9 Мбайт (2%)
Заголовок : MVO
Язык : Russian
Default : Да
Forced : Нет
Аудио #2
Идентификатор : 3
Формат : AC-3
Формат/Информация : Audio Coding 3
Расширение режима : CM (complete main)
Параметр Endianness формата : Big
Идентификатор кодека : A_AC3
Продолжительность : 1 ч. 17 м.
Вид битрейта : Постоянный
Битрейт : 192 Кбит/сек
Каналы : 1 канал
Расположение каналов : Front: C
Частота : 48,0 КГц
Метод сжатия : С потерями
Размер потока : 106 Мбайт (3%)
Заголовок : AVO - Юрий Сербин
Язык : Russian
Default : Нет
Forced : Нет
Аудио #3
Идентификатор : 4
Формат : AC-3
Формат/Информация : Audio Coding 3
Расширение режима : CM (complete main)
Параметр Endianness формата : Big
Идентификатор кодека : A_AC3
Продолжительность : 1 ч. 17 м.
Вид битрейта : Постоянный
Битрейт : 192 Кбит/сек
Каналы : 1 канал
Расположение каналов : Front: C
Частота : 48,0 КГц
Метод сжатия : С потерями
Размер потока : 106 Мбайт (3%)
Заголовок : AVO - Сергей Визгунов
Язык : Russian
Default : Нет
Forced : Нет
Аудио #4
Идентификатор : 5
Формат : FLAC
Формат/Информация : Free Lossless Audio Codec
Идентификатор кодека : A_FLAC
Продолжительность : 1 ч. 17 м.
Вид битрейта : Переменный
Каналы : 1 канал
Частота : 48,0 КГц
Битовая глубина : 16 бит
Заголовок : AVO - Алексей Михалёв
Библиотека кодирования : libFLAC 1.2.1 (UTC 2007-09-17)
Язык : Russian
Default : Нет
Forced : Нет
Аудио #5
Идентификатор : 6
Формат : FLAC
Формат/Информация : Free Lossless Audio Codec
Идентификатор кодека : A_FLAC
Продолжительность : 1 ч. 17 м.
Вид битрейта : Переменный
Каналы : 1 канал
Частота : 48,0 КГц
Битовая глубина : 16 бит
Заголовок : AVO - Кашкин/Первомайский
Библиотека кодирования : libFLAC 1.2.1 (UTC 2007-09-17)
Язык : Russian
Default : Нет
Forced : Нет
Аудио #6
Идентификатор : 7
Формат : AC-3
Формат/Информация : Audio Coding 3
Расширение режима : CM (complete main)
Параметр Endianness формата : Big
Идентификатор кодека : A_AC3
Продолжительность : 1 ч. 17 м.
Вид битрейта : Постоянный
Битрейт : 192 Кбит/сек
Каналы : 1 канал
Расположение каналов : Front: C
Частота : 48,0 КГц
Метод сжатия : С потерями
Размер потока : 106 Мбайт (3%)
Заголовок : ENG - DVD R1
Язык : English
Default : Нет
Forced : Нет
Аудио #7
Идентификатор : 8
Формат : AAC
Формат/Информация : Advanced Audio Codec
Профиль формата : LC
Идентификатор кодека : A_AAC
Продолжительность : 1 ч. 17 м.
Каналы : 2 канала
Расположение каналов : Front: L R
Частота : 48,0 КГц
Метод сжатия : С потерями
Заголовок : ENG
Язык : English
Default : Нет
Forced : Нет
Текст #1
Идентификатор : 9
Формат : UTF-8
Идентификатор кодека : S_TEXT/UTF8
Идентификатор кодека/Информация : UTF-8 Plain Text
Заголовок : rus sub
Язык : Russian
Default : Нет
Forced : Нет
Текст #2
Идентификатор : 10
Формат : UTF-8
Идентификатор кодека : S_TEXT/UTF8
Идентификатор кодека/Информация : UTF-8 Plain Text
Заголовок : ukr sub
Язык : Ukrainian
Default : Нет
Forced : Нет
Текст #3
Идентификатор : 11
Формат : UTF-8
Идентификатор кодека : S_TEXT/UTF8
Идентификатор кодека/Информация : UTF-8 Plain Text
Заголовок : eng sub
Язык : English
Default : Нет
Forced : Нет
Меню
00:00:00.000 : en:01
00:04:07.000 : en:02
00:08:01.000 : en:03
00:10:21.000 : en:04
00:13:57.000 : en:05
00:17:04.000 : en:06
00:20:09.000 : en:07
00:23:42.000 : en:08
00:30:03.000 : en:09
00:34:32.000 : en:10
00:36:45.000 : en:11
00:39:22.000 : en:12
00:42:26.000 : en:13
00:43:46.000 : en:14
00:45:47.000 : en:15
00:48:38.000 : en:16
00:50:42.000 : en:17
00:52:51.000 : en:18
00:57:06.000 : en:19
01:01:38.000 : en:20
01:04:47.000 : en:21
01:07:47.000 : en:22
01:12:30.000 : en:23
01:14:38.000 : en:24
01:16:30.000 : en:25



   Похожие торренты   Торрент   Размер 
В этой теме нет новых непрочитанных сообщений. Хоббит / The Hobbit (1977) DVDRip | P, A, A

69 | 10

1.35 ГБ

В этой теме нет новых непрочитанных сообщений. Хоббит / The Hobbit (1977) DVDRip

10 | 4

839.55 МБ

В этой теме нет новых непрочитанных сообщений. Хоббит: Пустошь Смауга / The Hobbit: The Desolation of Smaug (2013) BDRip 720p | 60 FPS

465 | 284

8.4 ГБ

В этой теме нет новых непрочитанных сообщений. Хоббит: Пустошь Смауга / The Hobbit: The Desolation of Smaug (2013) BDRip 720p | L1

573 | 44

8.14 ГБ

В этой теме нет новых непрочитанных сообщений. Хоббит: Пустошь Смауга / The Hobbit: The Desolation of Smaug (2013) HD 720p | Трейлер

8 | 2

25.02 МБ

В этой теме нет новых непрочитанных сообщений. Хоббит: Нежданное путешествие / The Hobbit: An Unexpected Journey (2012) BDRip 720p | Лицензия

9 | 4

11.57 ГБ

В этой теме нет новых непрочитанных сообщений. Хоббит: Пустошь Смауга / The Hobbit: The Desolation of Smaug (2013) BDRip 720p от HDCLUB

121 | 25

11.37 ГБ




Вы не можете начинать темы
Вы не можете отвечать на сообщения
Вы не можете редактировать свои сообщения
Вы не можете удалять свои сообщения
Вы не можете добавлять вложения

Перейти:  
Для Мосгорсуда, Роскомнадзора и рекламодателей: mosgorsud-torrent[собачка]yandex.ru
 Вход
ppkBB3cker v.2 © 2008-2014 @ PPK
[ Time : 0.021s | 15 Queries | GZIP : On ]

Торрент трекер RUTOR.IN, Не можете зайти на rutor.org? Какой новый адрес рутор? Какое зеркало рутор? Не работает rutor.org и зеркала? Тогда наш торрент специально для вас. Rutor.in неофициальное зеркало rutor. В случае если у Вас заблокирован rutor или вдруг Вы не можете на него зайти, то Вы без труда сможете скачать бесплатно и без рекламы последние новинки кино, игр, сериалов и прочего у нас, на Rutor.in. Не нужно использовать прокси, чтобы зайти на рутор, достаточно воспользоваться нашим ресурсом. Все новые фильмы, игры, сериалы, книги и музыка за 2013 и 2014 годы через торрент бесплатно. Скачивайте фильмы в хорошем качестве, игры для пк, xbox, playstation без регистрации. У нас вы найдете новые Зарубежные сериалы и Русские сериалы 2013, 2014, 2015 годов. Оставайтесь с нами, качайте любимые фильмы, игры, сериалы, книги и музыку.