img image001 image001 image001 image001 image001 image001 image001 image001 image001 image001 image001 image001 image001 image001 image001

Planets Sun Sun Sun
Статистика раздачи
Автор: Nickolas3434 | Размер: 15.57 ГБ | Добавлен: 25 фев 2016
Раздают: 92    Качают: 64
Скачать торрент
Скачать торрент
Описание торрента

СообщениеДобавлено: 25 фев 2016 

Информация о фильме
Название: Барбоскины
Год выхода: 2011-2016
Жанр: мультфильм, детский, семейный
Страна: Россия, студия Мельница
Продолжительность: 159 x ~ 00:04:46
Перевод: не требуется
Режиссеры: Екатерина Салабай, Галина Воропай, Елена Галдобина...
В ролях: Елена Шульман, Ксения Бржезовская, Олег Куликович, Михаил Черняк, Екатерина Гороховская, Мария Цветкова
О фильме:
Мама, папа и… пятеро щенят. Розе - 16 лет, Дружку - 13, Гене - 12, Лизе - 9, Малышу - 4 года. У Барбоскиных все, как у людей. Папа свободное время проводит за компьютером, дочери увлекаются модой и слушают Жанну Киску, а сыновья играют в футбол и мечтают о Нобелевской премии.....


Доп. информация: Это WEB-версия, широкоформатная (16:9), выходные титры всего 8 секунд.
Официальный сайт / Сэмпл
ЗЫ: В версии с DVD (4:3) выходные титры были 55 секунд.


Файл
Формат: MP4
Качество: WEBRip 1080p
Видео: MPEG4-AVC, High@L4, 1920x1080 (16:9), 25.000 fps, ~3 347 Kbps
Звук: 44.1 KHz, AAC-LC 2.0, 192 Kbps
Субтитры: отсутствуют
117. Самый лучший дед. Full-HD-merci-.mp4
Format : MPEG-4
Format profile : Base Media
Codec ID : isom (isom)
File size : 118 MiB
Duration : 4mn 38s
Overall bit rate mode : Variable
Overall bit rate : 3 542 Kbps
Encoded date : UTC 2016-02-23 10:51:51
Tagged date : UTC 2016-02-23 10:51:51
Writing application : My MP4Box GUI 0.6.0.6
Video
ID : 1
Format : AVC
Format/Info : Advanced Video Codec
Format profile : High@L4
Format settings, CABAC : Yes
Format settings, ReFrames : 2 frames
Codec ID : avc1
Codec ID/Info : Advanced Video Coding
Duration : 4mn 38s
Bit rate : 3 347 Kbps
Maximum bit rate : 7 021 Kbps
Width : 1 920 pixels
Height : 1 080 pixels
Display aspect ratio : 16:9
Frame rate mode : Constant
Frame rate : 25.000 fps
Color space : YUV
Chroma subsampling : 4:2:0
Bit depth : 8 bits
Scan type : Progressive
Bits/(Pixel*Frame) : 0.065
Stream size : 111 MiB (94%)
Title : 117_1080.mp4
Encoded date : UTC 2016-01-29 22:00:05
Tagged date : UTC 2016-02-23 10:51:54
Color range : Limited
Color primaries : BT.709
Transfer characteristics : BT.709
Matrix coefficients : BT.709
Audio
ID : 2
Format : AAC
Format/Info : Advanced Audio Codec
Format profile : LC
Codec ID : 40
Duration : 4mn 38s
Bit rate mode : Variable
Bit rate : 192 Kbps
Maximum bit rate : 202 Kbps
Channel(s) : 2 channels
Channel positions : Front: L R
Sampling rate : 44.1 KHz
Frame rate : 43.066 fps (1024 spf)
Compression mode : Lossy
Stream size : 6.37 MiB (5%)
Title : 117-ru.aac
Encoded date : UTC 2016-02-23 10:51:54
Tagged date : UTC 2016-02-23 10:51:54


Релиз от -merci-



   Похожие торренты   Торрент   Размер 
В этой теме нет новых непрочитанных сообщений. Барбоскины [01-09x001-160 из ?] (2011-2016) WEBRip 1080p от -merci-

61 | 30

15.67 ГБ

В этой теме нет новых непрочитанных сообщений. Барбоскины [01-09x001-161 из ?] (2011-2016) WEBRip 1080p от -merci-

56 | 32

15.78 ГБ

В этой теме нет новых непрочитанных сообщений. Барбоскины [01-09x001-160 из ?] (2011-2016) WEBRip от -merci-

50 | 40

9.57 ГБ

В этой теме нет новых непрочитанных сообщений. Барбоскины [01-09x001-161 из ?] (2011-2016) WEBRip от -merci-

92 | 113

9.63 ГБ

В этой теме нет новых непрочитанных сообщений. Барбоскины [01-09x001-159 из ?] (2011-2016) WEBRip от -merci-

411 | 82

9.51 ГБ

В этой теме нет новых непрочитанных сообщений. Барбоскины [01-09x001-160 из ?] (2011-2016) WEBRip 720p от -merci-

424 | 91

9.67 ГБ

В этой теме нет новых непрочитанных сообщений. Барбоскины [01-09x001-161 из ?] (2011-2016) WEBRip 720p от -merci-

236 | 254

9.73 ГБ




Вы не можете начинать темы
Вы не можете отвечать на сообщения
Вы не можете редактировать свои сообщения
Вы не можете удалять свои сообщения
Вы не можете добавлять вложения

Перейти:  
Для Мосгорсуда, Роскомнадзора и рекламодателей: mosgorsud-torrent[собачка]yandex.ru
 Вход
ppkBB3cker v.2 © 2008-2014 @ PPK
[ Time : 0.054s | 14 Queries | GZIP : Off ]

Торрент трекер RUTOR.IN, Не можете зайти на rutor.org? Какой новый адрес рутор? Какое зеркало рутор? Не работает rutor.org и зеркала? Тогда наш торрент специально для вас. Rutor.in неофициальное зеркало rutor. В случае если у Вас заблокирован rutor или вдруг Вы не можете на него зайти, то Вы без труда сможете скачать бесплатно и без рекламы последние новинки кино, игр, сериалов и прочего у нас, на Rutor.in. Не нужно использовать прокси, чтобы зайти на рутор, достаточно воспользоваться нашим ресурсом. Все новые фильмы, игры, сериалы, книги и музыка за 2013 и 2014 годы через торрент бесплатно. Скачивайте фильмы в хорошем качестве, игры для пк, xbox, playstation без регистрации. У нас вы найдете новые Зарубежные сериалы и Русские сериалы 2013, 2014, 2015 годов. Оставайтесь с нами, качайте любимые фильмы, игры, сериалы, книги и музыку.