img image001 image001 image001 image001 image001 image001 image001 image001 image001 image001 image001 image001 image001 image001 image001

Planets Sun Sun Sun
Статистика раздачи
Автор: Nickolas3434 | Размер: 1.19 ГБ | Добавлен: 25 фев 2016
Раздают: 128    Качают: 29
Скачать торрент
Скачать торрент
Описание торрента

СообщениеДобавлено: 25 фев 2016 

Информация о фильме
Название: ПУЗЫРИ: улётные приключения
Название (другое, старое): Приключения БАБЛС (The Bubbles)
Год выпуска: 2014-2015
Страна: Россия, студия "Небо"
Жанр: короткометражка, мультфильм, приключения, комедия, семейный
Продолжительность: 17 x ~ 00:07:00
Перевод: не требуется
Русские субтитры: нет
Режиссёр: Михаил Ершов
Сценарий: Михаил Ершов, Майк де Сев, Расселл Маркус
Роли озвучивали: Прохор Чеховский, Юрий Моляров, Диомид Виноградов, Ирина Киреева
Описание: Добро пожаловать в новый, фантастический и невероятный мир Пузырей! Вы увидите приключения героев мультфильма — неуклюжего Дядюшку Фёдора, его племянника - энергичного Марти, добродушной Майи, гениального Тена и большого и сильного Буль-Буля. В каждой серии герои пускаются в приключения, решают возникающие жизненные проблемы и просто веселятся!
19 Нояб.12:26; 2014г. Наталья ГЛАЗУНОВА
Мульсериал наших аниматоров теперь можно увидеть на детских телеканалах.
Наконец-то веселые приключения мыльных пузырей Волгоградской студии «НЕБО» показали на ТВ. По одной серии каждую субботу на телеканале «Мульт».
- Наконец-то нашу работу увидит самая широкая аудитория, - комментирует Михаил Ершов, режиссёр сериала. - Я рад этому событию, но понимаю, что нужно ещё очень много всего сделать. Наши показы уже стартовали на телеканале «Мульт» и интернет-канале «YouTube», теперь ждем премьеру на канале «Карусель».
На телеканале «Карусель» премьера сериала «ПУЗЫРИ: улётные приключения» состоится в канун Нового Года (30 – 31 декабря 2014).
Необычные персонажи и смешные истории, которые придумали и воплотили в мультсериал волгоградские аниматоры, буквально с первых серий завоевали популярность у маленьких и не только зрителей.
На канале «YouTube» проект стартовал в июле (2014 года) под названием «Приключения БАБЛС (The Bubbles)».
Но накануне всероссийской телепремьеры продюсеры проекта решили вернуть ему российское наименование - «ПУЗЫРИ».
01. Прыжки
02. День помощника
03. Голос древности
04. Отшельник
05. Приведешка
06. Ремонт
07. Бутерброды
08. Тэн улетает
09. Ветряные горки
10. Буленепробиваемый
11. Теория разбитых окон
12. Очередь
13. Буль-Буль и газировка
14. Новогодняя
15. Ужасный Прокалыватель
16. Игромания
17. Новый король

Доп. информация:
Семпл
Файл
Формат: MP4
Качество: WEBRip 720p
Видео: MPEG4-AVC, High@L3.1, 1280x720 (16:9), 24.000 fps, ~ 1 188 kbps,
Аудио: 44.1 kHz, AAC-LC, 2.0, ~192.00 kbps
Субтитры: отсутствуют
04. ПУЗЫРИ - Отшельник. HD-merci-.mp4
Format : MPEG-4
Format profile : Base Media / Version 2
Codec ID : mp42 (isom/mp42)
File size : 75.0 MiB
Duration : 7mn 35s
Overall bit rate mode : Variable
Overall bit rate : 1 383 Kbps
Encoded date : UTC 2014-12-19 11:53:55
Tagged date : UTC 2014-12-19 11:53:55
gsst : 0
gstd : 455273
gssd : B2E1CF60BHH1421072091865073
gshh : r8---sn-2apm-f5f6.googlevideo.com
Video
ID : 1
Format : AVC
Format/Info : Advanced Video Codec
Format profile : High@L3.1
Format settings, CABAC : Yes
Format settings, ReFrames : 1 frame
Codec ID : avc1
Codec ID/Info : Advanced Video Coding
Duration : 7mn 35s
Bit rate : 1 188 Kbps
Maximum bit rate : 3 470 Kbps
Width : 1 280 pixels
Height : 720 pixels
Display aspect ratio : 16:9
Frame rate mode : Constant
Frame rate : 24.000 fps
Color space : YUV
Chroma subsampling : 4:2:0
Bit depth : 8 bits
Scan type : Progressive
Bits/(Pixel*Frame) : 0.054
Stream size : 64.5 MiB (86%)
Tagged date : UTC 2014-12-19 11:53:57
Audio
ID : 2
Format : AAC
Format/Info : Advanced Audio Codec
Format profile : LC
Codec ID : 40
Duration : 7mn 35s
Bit rate mode : Variable
Bit rate : 192 Kbps
Maximum bit rate : 203 Kbps
Channel(s) : 2 channels
Channel positions : Front: L R
Sampling rate : 44.1 KHz
Frame rate : 43.066 fps (1024 spf)
Compression mode : Lossy
Stream size : 10.4 MiB (14%)
Title : IsoMedia File Produced by Google, 5-11-2011
Encoded date : UTC 2014-12-19 11:53:57
Tagged date : UTC 2014-12-19 11:53:57


Релиз от: -merci-



   Похожие торренты   Торрент   Размер 
В этой теме нет новых непрочитанных сообщений. ПУЗЫРИ: улётные приключения [01x01-18 из 52] (2014-2015) WEBRip 720p от -merci-

140 | 24

1.27 ГБ

В этой теме нет новых непрочитанных сообщений. Новые приключения кота Леопольда [01-13 из 13] (2015) WEBRip 720p от -merci-

542 | 27

2.01 ГБ

В этой теме нет новых непрочитанных сообщений. Новые приключения кота Леопольда [01-05, 08-13 из 13] (2015) WEBRip 720p от -merci-

160 | 16

1.72 ГБ

В этой теме нет новых непрочитанных сообщений. Новые приключения кота Леопольда [01-06, 08-13 из 13] (2015) WEBRip 720p от -merci-

130 | 4

1.86 ГБ

В этой теме нет новых непрочитанных сообщений. Новые приключения кота Леопольда [04] (2015) WEBRip 720p от -merci-

33 | 2

174.88 МБ

В этой теме нет новых непрочитанных сообщений. Новые приключения кота Леопольда [01-03, 08-13 из 13] (2015) WEBRip 720p от -merci-

110 | 3

1.4 ГБ

В этой теме нет новых непрочитанных сообщений. Приключения БАБЛС / The Bubbles [01x01-18 из 52] (2014-2015) WEB-DL 1080 от -merci-

23 | 9

4.78 ГБ




Вы не можете начинать темы
Вы не можете отвечать на сообщения
Вы не можете редактировать свои сообщения
Вы не можете удалять свои сообщения
Вы не можете добавлять вложения

Перейти:  
Для Мосгорсуда, Роскомнадзора и рекламодателей: mosgorsud-torrent[собачка]yandex.ru
 Вход
ppkBB3cker v.2 © 2008-2014 @ PPK
[ Time : 0.034s | 15 Queries | GZIP : Off ]

Торрент трекер RUTOR.IN, Не можете зайти на rutor.org? Какой новый адрес рутор? Какое зеркало рутор? Не работает rutor.org и зеркала? Тогда наш торрент специально для вас. Rutor.in неофициальное зеркало rutor. В случае если у Вас заблокирован rutor или вдруг Вы не можете на него зайти, то Вы без труда сможете скачать бесплатно и без рекламы последние новинки кино, игр, сериалов и прочего у нас, на Rutor.in. Не нужно использовать прокси, чтобы зайти на рутор, достаточно воспользоваться нашим ресурсом. Все новые фильмы, игры, сериалы, книги и музыка за 2013 и 2014 годы через торрент бесплатно. Скачивайте фильмы в хорошем качестве, игры для пк, xbox, playstation без регистрации. У нас вы найдете новые Зарубежные сериалы и Русские сериалы 2013, 2014, 2015 годов. Оставайтесь с нами, качайте любимые фильмы, игры, сериалы, книги и музыку.