img image001 image001 image001 image001 image001 image001 image001 image001 image001 image001 image001 image001 image001 image001 image001

Planets Sun Sun Sun
Статистика раздачи
Автор: Nickolas3434 | Размер: 13.51 ГБ | Добавлен: 29 фев 2016
Раздают: 51    Качают: 19
Скачать торрент
Скачать торрент
Описание торрента

СообщениеДобавлено: 29 фев 2016 


Информация о фильме
Название: Секрет Н.И.М.Х.
Оригинальное название: The Secret of NIMH
Год выхода: 1982
Жанр: мультфильм, фантастика, фэнтези
Режиссер: Дон Блут
В ролях: Дерек Джекоби, Элизабет Хартман, Артур Мэлет, Дом ДеЛуис, Гермиона Бадделей, Шэннен Доэрти, Уил Уитон, Джоди Хикс, Йен Фрид, Джон Кэрредин
О фильме:
Сражаясь за спасение своего домика от разрушения фермером Фицджиббом, миссис Бризби прибегает к помощи своих друзей, среди которых ворон, мудрая сова и несколько невероятно сообразительных крыс.

Страна: США
Студия: Aurora, Don Bluth Productions, Mrs. Brisby Ltd.
Продолжительность: 01:22:45
Перевод: Профессиональный (дублированный) + Профессиональный (двухголосый, закадровый) НТВ+ + Авторский (одноголосый, закадровый) А.Гаврилов + Авторский (одноголосый, закадровый) Ю.Живов
Релиз:
Файл
Формат: Matroska
Видео: 1920x1040 at 23.976 fps, x264@L4.1, ~20500 kbps avg
Аудио#1: Russian: 48 kHz, AC3, 2/0 (L,R) ch, ~192.00 kbps avg |Дубляж|
Аудио#2: Russian: 48 kHz, AC3, 2/0 (L,R) ch, ~192.00 kbps avg |Двухголосый закадровый, НТВ+|
Аудио#3: Russian: 48 kHz, AC3, 2/0 (L,R) ch, ~256.00 kbps avg |Авторский, А.Гаврилов|
Аудио#4: Russian: 48 kHz, AC3, 2/0 (L,R) ch, ~256.00 kbps avg |Авторский, Ю.Живов|
Аудио#5: English: 48 kHz, DTS, 2/0 (L,R) ch, ~1510.00 kbps avg
Субтитры: Russian, English, French
***Сохранены оригинальные главы.
***Видеоряд от F00D.
Общее
Уникальный идентификатор : 179294153332604120570126035915875842226 (0x86E2CC4194A7F1DAA4C2CC13766078B2)
Полное имя : The.Secret.Of.NIMH.1982.1080p.BluRay.4xRus.Eng-HDCLUB.mkv
Формат : Matroska
Версия формата : Version 4 / Version 2
Размер файла : 13,5 Гбайт
Продолжительность : 1 ч. 22 м.
Общий поток : 23,4 Мбит/сек
Название фильма : The Secret of NIMH (1982) - Release for HDCLUB
Дата кодирования : UTC 2016-02-27 18:34:07
Программа кодирования : mkvmerge v8.3.0 ('Over the Horizon') 64bit
Библиотека кодирования : libebml v1.3.1 + libmatroska v1.4.2
Видео
Идентификатор : 1
Формат : AVC
Формат/Информация : Advanced Video Codec
Профиль формата : High@L4.1
Параметр CABAC формата : Да
Параметр ReFrames формата : 4 кадра
Идентификатор кодека : V_MPEG4/ISO/AVC
Битрейт : 20,5 Мбит/сек
Ширина : 1920 пикселей
Высота : 1040 пикселей
Соотношение сторон : 1,85:1
Режим частоты кадров : Переменный
Частота кадров в оригинале : 23,976 кадра/сек
Цветовое пространство : YUV
Субдискретизация насыщенности : 4:2:0
Битовая глубина : 8 бит
Тип развёртки : Прогрессивная
Библиотека кодирования : x264 core 148 r2638 7599210
Настройки программы : cabac=1 / ref=4 / deblock=1:-3:-3 / analyse=0x3:0x133 / me=tesa / subme=11 / psy=1 / psy_rd=1.00:0.00 / mixed_ref=1 / me_range=32 / chroma_me=1 / trellis=2 / 8x8dct=1 / cqm=0 / deadzone=21,11 / fast_pskip=0 / chroma_qp_offset=-2 / threads=6 / lookahead_threads=1 / sliced_threads=0 / nr=0 / decimate=0 / interlaced=0 / bluray_compat=0 / constrained_intra=0 / bframes=16 / b_pyramid=2 / b_adapt=2 / b_bias=0 / direct=3 / weightb=1 / open_gop=0 / weightp=2 / keyint=250 / keyint_min=24 / scenecut=40 / intra_refresh=0 / rc_lookahead=250 / rc=crf / mbtree=0 / crf=19.0 / qcomp=0.67 / qpmin=0 / qpmax=69 / qpstep=4 / vbv_maxrate=62500 / vbv_bufsize=78125 / crf_max=0.0 / nal_hrd=none / filler=0 / ip_ratio=1.40 / pb_ratio=1.30 / aq=2:0.60
Язык : English
Default : Да
Forced : Нет
Аудио #1
Идентификатор : 2
Формат : AC-3
Формат/Информация : Audio Coding 3
Расширение режима : CM (complete main)
Параметр Endianness формата : Big
Идентификатор кодека : A_AC3
Продолжительность : 1 ч. 22 м.
Вид битрейта : Постоянный
Битрейт : 192 Кбит/сек
Каналы : 2 канала
Расположение каналов : Front: L R
Частота : 48,0 КГц
Метод сжатия : С потерями
Размер потока : 114 Мбайт (1%)
Заголовок : Dub
Язык : Russian
Default : Да
Forced : Нет
Аудио #2
Идентификатор : 3
Формат : AC-3
Формат/Информация : Audio Coding 3
Расширение режима : CM (complete main)
Параметр Endianness формата : Big
Идентификатор кодека : A_AC3
Продолжительность : 1 ч. 22 м.
Вид битрейта : Постоянный
Битрейт : 192 Кбит/сек
Каналы : 2 канала
Расположение каналов : Front: L R
Частота : 48,0 КГц
Метод сжатия : С потерями
Размер потока : 114 Мбайт (1%)
Заголовок : MVO NTV+
Язык : Russian
Default : Нет
Forced : Нет
Аудио #3
Идентификатор : 4
Формат : AC-3
Формат/Информация : Audio Coding 3
Расширение режима : CM (complete main)
Параметр Endianness формата : Big
Идентификатор кодека : A_AC3
Продолжительность : 1 ч. 22 м.
Вид битрейта : Постоянный
Битрейт : 256 Кбит/сек
Каналы : 2 канала
Расположение каналов : Front: L R
Частота : 48,0 КГц
Метод сжатия : С потерями
Размер потока : 152 Мбайт (1%)
Заголовок : AVO Gavrilov
Язык : Russian
Default : Нет
Forced : Нет
Аудио #4
Идентификатор : 5
Формат : AC-3
Формат/Информация : Audio Coding 3
Расширение режима : CM (complete main)
Параметр Endianness формата : Big
Идентификатор кодека : A_AC3
Продолжительность : 1 ч. 22 м.
Вид битрейта : Постоянный
Битрейт : 256 Кбит/сек
Каналы : 2 канала
Расположение каналов : Front: L R
Частота : 48,0 КГц
Метод сжатия : С потерями
Размер потока : 152 Мбайт (1%)
Заголовок : AVO Jivov
Язык : Russian
Default : Нет
Forced : Нет
Аудио #5
Идентификатор : 6
Формат : DTS
Формат/Информация : Digital Theater Systems
Режим : 16
Параметр Endianness формата : Big
Идентификатор кодека : A_DTS
Продолжительность : 1 ч. 22 м.
Вид битрейта : Постоянный
Битрейт : 1509 Кбит/сек
Каналы : 2 канала
Расположение каналов : Front: L R
Частота : 48,0 КГц
Битовая глубина : 24 бит
Метод сжатия : С потерями
Размер потока : 893 Мбайт (6%)
Язык : English
Default : Нет
Forced : Нет
Текст #1
Идентификатор : 7
Формат : UTF-8
Идентификатор кодека : S_TEXT/UTF8
Идентификатор кодека/Информация : UTF-8 Plain Text
Язык : Russian
Default : Нет
Forced : Нет
Текст #2
Идентификатор : 8
Формат : UTF-8
Идентификатор кодека : S_TEXT/UTF8
Идентификатор кодека/Информация : UTF-8 Plain Text
Язык : English
Default : Нет
Forced : Нет
Текст #3
Идентификатор : 9
Формат : UTF-8
Идентификатор кодека : S_TEXT/UTF8
Идентификатор кодека/Информация : UTF-8 Plain Text
Язык : French
Default : Нет
Forced : Нет
Меню
00:00:00.000 : en:Prologue/Main Titles
00:03:52.232 : en:Medicine Packet
00:07:03.048 : en:Call of the Wild
00:09:56.346 : en:Allergic to Cats
00:11:53.004 : en:Jeremy's Potential
00:14:42.298 : en:Auntie Shrew
00:17:39.892 : en:Flying Dreams
00:20:41.866 : en:Moving Day
00:24:19.541 : en:Seeking Wisdom
00:26:26.084 : en:The Great Owl
00:31:57.332 : en:Helpful Jeremy
00:34:36.241 : en:Brutus
00:38:56.960 : en:The Great Council
00:44:51.981 : en:All Tied Up
00:47:43.402 : en:Nicodemus
00:50:56.595 : en:The Secret of NIMH
00:53:59.528 : en:The Glowing Stone
00:56:34.683 : en:Drugging Dragon
01:03:14.457 : en:Bad News
01:07:37.095 : en:The Warning
01:10:34.230 : en:The House Sinks
01:12:46.404 : en:The Medallion's Power
01:15:02.915 : en:Sweet New Home
01:17:51.667 : en:End Titles



   Похожие торренты   Торрент   Размер 
В этой теме нет новых непрочитанных сообщений. Секрет Н.И.М.Х. / Секрет Крыс / The Secret of NIMH (1982) BDRip 1080p

3 | 4

5.9 ГБ

В этой теме нет новых непрочитанных сообщений. Секрет Н.И.М.Х. 1 - 2 / The Secret of NIMH; The Secret of NIMH 2: Timmy to the Rescue (1982-1998) 2xDVD5 от New-Team | D, P | Лицензия

96 | 34

7.35 ГБ

В этой теме нет новых непрочитанных сообщений. Секрет Н.И.М.Х. / Секрет Крыс / The Secret of NIMH (1982) BDRemux 1080p

0 | 2

17.55 ГБ

В этой теме нет новых непрочитанных сообщений. Секрет Н.И.М.Х. / Секрет Крыс / The Secret of NIMH (1982) BDRip-AVC от AVCurtain

50 | 9

2.69 ГБ

В этой теме нет новых непрочитанных сообщений. Секрет Н.И.М.Х. / Секрет Крыс / The Secret of NIMH (1982) BDRip 720p

1 | 2

8.13 ГБ

В этой теме нет новых непрочитанных сообщений. Секрет Н.И.М.Х. / Секрет Крыс / The Secret of NIMH (1982) BDRip от HQCLUB

57 | 11

1.46 ГБ

В этой теме нет новых непрочитанных сообщений. Секрет Н.И.М.Х. / The Secret of NIMH (1982) BDRip-AVC | iPad

3 | 3

1.41 ГБ




Вы не можете начинать темы
Вы не можете отвечать на сообщения
Вы не можете редактировать свои сообщения
Вы не можете удалять свои сообщения
Вы не можете добавлять вложения

Перейти:  
Для Мосгорсуда, Роскомнадзора и рекламодателей: mosgorsud-torrent[собачка]yandex.ru
 Вход
ppkBB3cker v.2 © 2008-2014 @ PPK
[ Time : 0.020s | 14 Queries | GZIP : On ]

Торрент трекер RUTOR.IN, Не можете зайти на rutor.org? Какой новый адрес рутор? Какое зеркало рутор? Не работает rutor.org и зеркала? Тогда наш торрент специально для вас. Rutor.in неофициальное зеркало rutor. В случае если у Вас заблокирован rutor или вдруг Вы не можете на него зайти, то Вы без труда сможете скачать бесплатно и без рекламы последние новинки кино, игр, сериалов и прочего у нас, на Rutor.in. Не нужно использовать прокси, чтобы зайти на рутор, достаточно воспользоваться нашим ресурсом. Все новые фильмы, игры, сериалы, книги и музыка за 2013 и 2014 годы через торрент бесплатно. Скачивайте фильмы в хорошем качестве, игры для пк, xbox, playstation без регистрации. У нас вы найдете новые Зарубежные сериалы и Русские сериалы 2013, 2014, 2015 годов. Оставайтесь с нами, качайте любимые фильмы, игры, сериалы, книги и музыку.