img image001 image001 image001 image001 image001 image001 image001 image001 image001 image001 image001 image001 image001 image001 image001

Planets Sun Sun Sun
Статистика раздачи
Автор: Nickolas3434 | Размер: 7.68 ГБ | Добавлен: 29 фев 2016
Раздают: 603    Качают: 27
Скачать торрент
Скачать торрент
Описание торрента

СообщениеДобавлено: 29 фев 2016 


Информация о фильме
Оригинальное название: Богатырша
Год выпуска: 2015
Жанр: Мультфильм, детский, семейный, полнометражный
Выпущено: Россия
Режиссер: Ольга Лопато
В ролях: Анна Хилькевич, Алексей Чумаков, Гарик Харламов, Тимур Батрутдинов, Михаил Пореченков, Алёна Бабенко, Борис Щербаков, Мирослава Карпович, Армен Джигарханян, Василиса Эльдарова
О фильме: …И было предсказание славному витязю Бориполку, что у него родится сын, который станет великим воином и спасет Русь от великой напасти. Но, как всегда, все вышло наоборот: у героя родилась… дочка. А спасения Руси никто не отменял. И как сражаться с врагом, когда у него три головы, и каждая со своими выкрутасами?

Файл
Качество: BDRip (1080p)
Видео: MPEG-4 AVC, 12340 Кбит/с, 1920x804, 25 кадр/с
Аудио: Русский (AC3, 6 ch, 640 Кбит/с), (DTS, 6 ch, 1509 Кбит/с)
Размер: 7.68 ГБ
Продолжительность: 01:15:52
Язык: Русский
Озвучивание - (Лицензия)
Сохранены оригинальные чаптеры как на Blu-Ray.
x264 [info]: frame I:1466 Avg QP:16.54 size:242032
x264 [info]: frame P:47363 Avg QP:19.80 size: 96541
x264 [info]: frame B:64982 Avg QP:21.01 size: 32179
x264 [info]: consecutive B-frames: 10.9% 35.9% 19.7% 19.4% 10.9% 1.6% 0.2% 0.1% 0.0% 1.2%
x264 [info]: mb I I16..4: 8.7% 61.0% 30.2%
x264 [info]: mb P I16..4: 1.8% 10.1% 3.2% P16..4: 31.6% 28.5% 10.9% 2.4% 0.3% skip:11.1%
x264 [info]: mb B I16..4: 0.3% 1.0% 0.5% B16..8: 27.2% 13.5% 2.6% direct: 7.1% skip:47.8% L0:34.8% L1:45.9% BI:19.3%
x264 [info]: 8x8 transform intra:64.7% inter:44.9%
x264 [info]: direct mvs spatial:92.1% temporal:7.9%
x264 [info]: coded y,uvDC,uvAC intra: 78.3% 83.8% 56.4% inter: 32.0% 28.4% 13.0%
x264 [info]: i16 v,h,dc,p: 42% 19% 5% 34%
x264 [info]: i8 v,h,dc,ddl,ddr,vr,hd,vl,hu: 14% 12% 12% 8% 10% 10% 11% 10% 13%
x264 [info]: i4 v,h,dc,ddl,ddr,vr,hd,vl,hu: 26% 9% 9% 7% 10% 10% 10% 8% 10%
x264 [info]: i8c dc,h,v,p: 30% 32% 22% 16%
x264 [info]: Weighted P-Frames: Y:2.6% UV:1.3%
x264 [info]: ref P L0: 58.7% 14.7% 15.9% 5.3% 4.3% 1.2% 0.0%
x264 [info]: ref B L0: 80.0% 14.5% 4.8% 0.6%
x264 [info]: ref B L1: 95.5% 4.5%
x264 [info]: kb/s:12333.40

Общее
Уникальный идентификатор : 238862716584479451783754980223086300417 (0xB3B3492D410DF494B51400DFF73D0D01)
Полное имя : D:ЗагрузкиBogatirsha.2015.x264.BDRip.(1080p).ExKinoRay.mkv
Формат : Matroska
Версия формата : Version 2
Размер файла : 7,68 Гбайт
Продолжительность : 1 ч. 15 м.
Общий поток : 14,5 Мбит/сек
Название фильма : Богатырша.2015.Rip by: ollan
Дата кодирования : UTC 2016-02-28 19:58:52
Программа кодирования : mkvmerge v5.6.0 ('Kenya Kane') built on May 27 2012 16:44:04
Библиотека кодирования : libebml v1.2.3 + libmatroska v1.3.0
Видео
Идентификатор : 1
Формат : AVC
Формат/Информация : Advanced Video Codec
Профиль формата : High@L4.1
Параметр CABAC формата : Да
Параметр ReFrames формата : 5 кадров
Идентификатор кодека : V_MPEG4/ISO/AVC
Продолжительность : 1 ч. 15 м.
Битрейт : 12,3 Мбит/сек
Ширина : 1920 пикселей
Высота : 804 пикселя
Соотношение сторон : 2,40:1
Режим частоты кадров : Постоянный
Частота кадров : 25,000 кадров/сек
Цветовое пространство : YUV
Субдискретизация насыщенности : 4:2:0
Битовая глубина : 8 бит
Тип развёртки : Прогрессивная
Бит/(Пиксели*Кадры) : 0.320
Размер потока : 6,39 Гбайт (83%)
Библиотека кодирования : x264 core 146 r2538 121396c
Настройки программы : cabac=1 / ref=5 / deblock=1:-3:-3 / analyse=0x3:0x133 / me=umh / subme=11 / psy=1 / psy_rd=1.00:0.05 / mixed_ref=1 / me_range=48 / chroma_me=1 / trellis=2 / 8x8dct=1 / cqm=0 / deadzone=21,11 / fast_pskip=0 / chroma_qp_offset=-3 / threads=12 / lookahead_threads=1 / sliced_threads=0 / nr=0 / decimate=0 / interlaced=0 / bluray_compat=0 / constrained_intra=0 / bframes=9 / b_pyramid=2 / b_adapt=1 / b_bias=0 / direct=3 / weightb=1 / open_gop=0 / weightp=2 / keyint=250 / keyint_min=25 / scenecut=40 / intra_refresh=0 / rc=2pass / mbtree=0 / bitrate=12340 / ratetol=1.0 / qcomp=0.60 / qpmin=0 / qpmax=69 / qpstep=4 / cplxblur=20.0 / qblur=0.5 / ip_ratio=1.40 / pb_ratio=1.30 / aq=1:1.00
Язык : Russian
Default : Да
Forced : Нет
Аудио #1
Идентификатор : 2
Формат : AC-3
Формат/Информация : Audio Coding 3
Расширение режима : CM (complete main)
Параметр Endianness формата : Big
Идентификатор кодека : A_AC3
Продолжительность : 1 ч. 15 м.
Вид битрейта : Постоянный
Битрейт : 640 Кбит/сек
Каналы : 6 каналов
Расположение каналов : Front: L C R, Side: L R, LFE
Частота : 48,0 КГц
Битовая глубина : 16 бит
Метод сжатия : С потерями
Размер потока : 347 Мбайт (4%)
Заголовок : Лицензия
Язык : Russian
Default : Да
Forced : Нет
Аудио #2
Идентификатор : 3
Формат : DTS
Формат/Информация : Digital Theater Systems
Режим : 16
Параметр Endianness формата : Big
Идентификатор кодека : A_DTS
Продолжительность : 1 ч. 15 м.
Вид битрейта : Постоянный
Битрейт : 1509 Кбит/сек
Каналы : 6 каналов
Расположение каналов : Front: L C R, Side: L R, LFE
Частота : 48,0 КГц
Битовая глубина : 16 бит
Метод сжатия : С потерями
Размер потока : 819 Мбайт (10%)
Заголовок : Лицензия
Язык : Russian
Default : Нет
Forced : Нет
Меню
00:00:00.000 : ru:Chapter 01
00:01:14.720 : ru:Chapter 02
00:09:19.160 : ru:Chapter 03
00:19:57.280 : ru:Chapter 04
00:29:22.400 : ru:Chapter 05
00:36:22.720 : ru:Chapter 06
00:49:29.040 : ru:Chapter 07
00:55:15.920 : ru:Chapter 08
01:04:41.560 : ru:Chapter 09





Релиз от: Rip by:



   Похожие торренты   Торрент   Размер 
В этой теме нет новых непрочитанных сообщений. Богатырша (2015) BDRemux 1080i от ExKinoRay | Лицензия

166 | 35

11.43 ГБ

В этой теме нет новых непрочитанных сообщений. Богатырша (2015) BDRip 720p | Лицензия

1740 | 70

2.19 ГБ

В этой теме нет новых непрочитанных сообщений. Богатырша (2015) BDRip от Twi7ter | Лицензия

4926 | 246

1.45 ГБ

В этой теме нет новых непрочитанных сообщений. Богатырша (2015) WEB-DLRip-AVC от ExKinoRay | iTunes Russia

1860 | 116

1.65 ГБ

В этой теме нет новых непрочитанных сообщений. Богатырша (2015) WEB-DLRip-AVC от ExKinoRay | iTunes Russia

1946 | 114

745.35 МБ

В этой теме нет новых непрочитанных сообщений. Богатырша (2015) Blu-ray 1080i | Лицензия

340 | 83

14.75 ГБ

В этой теме нет новых непрочитанных сообщений. Богатырша (2015) WEB-DL 1080p | iTunes

5124 | 282

2.56 ГБ




Вы не можете начинать темы
Вы не можете отвечать на сообщения
Вы не можете редактировать свои сообщения
Вы не можете удалять свои сообщения
Вы не можете добавлять вложения

Перейти:  
Для Мосгорсуда, Роскомнадзора и рекламодателей: mosgorsud-torrent[собачка]yandex.ru
 Вход
ppkBB3cker v.2 © 2008-2014 @ PPK
[ Time : 0.023s | 16 Queries | GZIP : Off ]

Торрент трекер RUTOR.IN, Не можете зайти на rutor.org? Какой новый адрес рутор? Какое зеркало рутор? Не работает rutor.org и зеркала? Тогда наш торрент специально для вас. Rutor.in неофициальное зеркало rutor. В случае если у Вас заблокирован rutor или вдруг Вы не можете на него зайти, то Вы без труда сможете скачать бесплатно и без рекламы последние новинки кино, игр, сериалов и прочего у нас, на Rutor.in. Не нужно использовать прокси, чтобы зайти на рутор, достаточно воспользоваться нашим ресурсом. Все новые фильмы, игры, сериалы, книги и музыка за 2013 и 2014 годы через торрент бесплатно. Скачивайте фильмы в хорошем качестве, игры для пк, xbox, playstation без регистрации. У нас вы найдете новые Зарубежные сериалы и Русские сериалы 2013, 2014, 2015 годов. Оставайтесь с нами, качайте любимые фильмы, игры, сериалы, книги и музыку.