img image001 image001 image001 image001 image001 image001 image001 image001 image001 image001 image001 image001 image001 image001 image001

Planets Sun Sun Sun
Статистика раздачи
Автор: PriZraK | Размер: 710.84 МБ | Добавлен: 13 мар 2016
Раздают: 55    Качают: 16
Скачать торрент
Скачать торрент
Описание торрента

СообщениеДобавлено: 13 мар 2016 

Информация о фильме:
● Название: Великий Человек-паук
● Оригинальное название: Ultimate Spider-Man
● Год выхода: 2012
● Страна: США
● Студия: Film Roman Productions, Marvel Animation
● Жанр: Мультсериал фантастика, боевик, приключения, комедия
● Режиссер: Алекс Сото, Филип Пиньотти, Рой Бурдин
● В ролях: Дрейк Белл, Чи МакБрайд, Оги Бэнкс, Логан Миллер, Грег Сайпс, Кейтлин Тейлор Лав, Дж.К. Симмонс, Мэтт Лантер, Мисти Ли, Кларк Грегг
● Продолжительность: 3 х 00:22:03
● Перевод: Многоголосный любительский
● Субтитры: Русские, английские

Описание фильма:
Мультсериал основан на одноимённой серии комиксов, повествующих о ещё молодом Человеке-пауке, которому Ник Фьюри предложил пройти тренировочный курс для улучшения собственных навыков. В ходе обучения Человек-паук обзаводится командой из Люка Кейджа, Железного кулака, Новы и Белой тигрицы. В ходе тренировок ему предоставляется собственный мотоцикл (Спайдерцикл). В одной из серий Человек-паук встретит Железного Человека, который сделает ему броню Железного Паука.
Информация о файле:
● Кодек: AVC
● Формат: MP4
● Качество: WEB-DLRip 720p
● Видео: 1280x720, 23.976 fps, MPEG-4 AVC ~ 1400 kbps
● Аудио: 44,1 kHz, AAC, 2/0 (L,R) ch, ~ 165 kbps

Релиз от:
01. Hydra Attacks. Part 1
02. Hydra Attacks. Part 2
03. Miles From Home
Перевод на русский: Yellow Tree
Текст читали: Алла Гришина, Игорь Хрусталёв, Евгений Леонов
Формат видео: MP4 PS3 or XBOX360, x264 Q21 HQ
Общее
Полное имя: D:SHAgroupNewUltimate Spider-Man. 2012. s04. mp4 1280x720s04e01. Hydra Attacks. Part 1.eng-webdl.srt
Формат: SubRip
Размер файла: 27,4 Кбайт
Текст
Формат: SubRip
Метод сжатия: Без потерь
Общее
Полное имя: D:SHAgroupNewUltimate Spider-Man. 2012. s04. mp4 1280x720s04e01. Hydra Attacks. Part 1.mp4
Формат: MPEG-4
Профиль формата: Base Media
Идентификатор кодека: isom
Размер файла: 238 Мбайт
Продолжительность: 22 м.
Режим общего битрейта: Переменный
Общий поток: 1507 Кбит/сек
Дата кодирования: UTC 2016-03-07 17:49:36
Дата пометки: UTC 2016-03-07 17:49:36
Видео
Идентификатор: 1
Формат: AVC
Формат/Информация: Advanced Video Codec
Профиль формата: High@L4.1
Параметр CABAC формата: Да
Параметр ReFrames формата: 4 кадра
Идентификатор кодека: avc1
Идентификатор кодека/Информация: Advanced Video Coding
Продолжительность: 22 м.
Битрейт: 1338 Кбит/сек
Максимальный битрейт: 8279 Кбит/сек
Ширина: 1280 пикселей
Высота: 720 пикселей
Соотношение сторон: 16:9
Режим частоты кадров: Постоянный
Частота кадров: 23,976 кадра/сек
Цветовое пространство: YUV
Субдискретизация насыщенности: 4:2:0
Битовая глубина: 8 бит
Тип развёртки: Прогрессивная
Бит/(Пиксели*Кадры): 0.061
Размер потока: 211 Мбайт (89%)
Библиотека кодирования: x264 core 130 r2273 b3065e6
Настройки программы: cabac=1 / ref=3 / deblock=1:0:0 / analyse=0x3:0x113 / me=umh / subme=7 / psy=1 / psy_rd=1.00:0.00 / mixed_ref=1 / me_range=12 / chroma_me=1 / trellis=2 / 8x8dct=1 / cqm=0 / deadzone=21,11 / fast_pskip=1 / chroma_qp_offset=-2 / threads=3 / lookahead_threads=1 / sliced_threads=0 / nr=0 / decimate=1 / interlaced=0 / bluray_compat=0 / constrained_intra=0 / bframes=3 / b_pyramid=2 / b_adapt=2 / b_bias=0 / direct=3 / weightb=1 / open_gop=0 / weightp=2 / keyint=250 / keyint_min=23 / scenecut=40 / intra_refresh=0 / rc_lookahead=60 / rc=crf / mbtree=1 / crf=21.0 / qcomp=0.50 / qpmin=0 / qpmax=69 / qpstep=4 / vbv_maxrate=24000 / vbv_bufsize=24000 / crf_max=0.0 / nal_hrd=none / ip_ratio=1.10 / aq=1:1.00
Дата кодирования: UTC 2016-03-07 17:49:36
Дата пометки: UTC 2016-03-07 17:49:42
Аудио
Идентификатор: 2
Формат: AAC
Формат/Информация: Advanced Audio Codec
Профиль формата: LC
Идентификатор кодека: 40
Продолжительность: 22 м.
Вид битрейта: Переменный
Битрейт: 165 Кбит/сек
Максимальный битрейт: 213 Кбит/сек
Каналы: 2 канала
Расположение каналов: Front: L R
Частота: 44,1 КГц
Метод сжатия: С потерями
Размер потока: 26,0 Мбайт (11%)
Дата кодирования: UTC 2016-03-07 17:49:40
Дата пометки: UTC 2016-03-07 17:49:42
Общее
Полное имя: D:SHAgroupNewUltimate Spider-Man. 2012. s04. mp4 1280x720s04e01. Hydra Attacks. Part 1.rus-Yellow-Tree.srt
Формат: SubRip
Размер файла: 23,7 Кбайт
Текст
Формат: SubRip
Метод сжатия: Без потерь
Когда раздача ведётся путём добавления новых серий, при каждом добавлении создётся новый торрент. Чтобы начать докачку новой серии, пользователям необходимо сделать следующее:
(1) остановить скачивание,
(2) удалить старый торрент у себя из клиента (старые серии удалять не надо),
(3) скачать новый торрент и запустить его у себя в клиенте вместо старого, при этом указать клиенту путь в старую папку, куда и должно происходить скачивание новых серий.
Ваш клиент при этом должен произвести хеширование (проверку) старой папки (если не производит сам - помогите ему сделать это), и будет докачивать только те серии, которых у вас ещё нет. Старые серии при этом не удаляются, а продолжают раздаваться!
Eсли вы уже удалили старые серии, то предотвратить повторную закачку старых серий можно, отжав галочку в соответсвующих местах при запуске нового торрента. По возможности, желательно не удалять старые серии как можно дольше, чтобы релизёр не столько продолжал раздавать старые серии, а смог сконцентрироваться на новых.



   Похожие торренты   Торрент   Размер 
В этой теме нет новых непрочитанных сообщений. Великий Человек-паук / Ultimate Spider-Man [04x01-05] (2012) WEB-DLRip 720p | L

73 | 38

1.12 ГБ

В этой теме нет новых непрочитанных сообщений. Великий Человек-паук / Ultimate Spider-Man [04x01-02] (2012) WEB-DLRip 720p | L

2 | 3

469.36 МБ

В этой теме нет новых непрочитанных сообщений. Великий Человек-паук / Ultimate Spider-Man [04x01-06] (2012) WEB-DLRip 720p | L

169 | 65

1.35 ГБ

В этой теме нет новых непрочитанных сообщений. Великий Человек-паук / Ultimate Spider-Man [04x01-04] (2012) WEB-DLRip 720p | L

110 | 67

930.13 МБ

В этой теме нет новых непрочитанных сообщений. Великий Человек-паук / Ultimate Spider-Man [04x01] (2012) WEB-DLRip 720p | L

14 | 1

237.81 МБ

В этой теме нет новых непрочитанных сообщений. Великий Человек-паук / Ultimate Spider-Man [01-02x01-32 из 52] (2012-2013) WEB-DLRip-AVC 720p l D

3 | 6

17.66 ГБ

В этой теме нет новых непрочитанных сообщений. Великий Человек-паук / Совершенный Человек-паук / Ultimate Spider-Man [01x01-12 из 26] (2012) DVDRip от New-Team | D | лицензия

72 | 42

9.2 ГБ




Вы не можете начинать темы
Вы не можете отвечать на сообщения
Вы не можете редактировать свои сообщения
Вы не можете удалять свои сообщения
Вы не можете добавлять вложения

Перейти:  
Для Мосгорсуда, Роскомнадзора и рекламодателей: mosgorsud-torrent[собачка]yandex.ru
 Вход
ppkBB3cker v.2 © 2008-2014 @ PPK
[ Time : 0.018s | 14 Queries | GZIP : On ]

Торрент трекер RUTOR.IN, Не можете зайти на rutor.org? Какой новый адрес рутор? Какое зеркало рутор? Не работает rutor.org и зеркала? Тогда наш торрент специально для вас. Rutor.in неофициальное зеркало rutor. В случае если у Вас заблокирован rutor или вдруг Вы не можете на него зайти, то Вы без труда сможете скачать бесплатно и без рекламы последние новинки кино, игр, сериалов и прочего у нас, на Rutor.in. Не нужно использовать прокси, чтобы зайти на рутор, достаточно воспользоваться нашим ресурсом. Все новые фильмы, игры, сериалы, книги и музыка за 2013 и 2014 годы через торрент бесплатно. Скачивайте фильмы в хорошем качестве, игры для пк, xbox, playstation без регистрации. У нас вы найдете новые Зарубежные сериалы и Русские сериалы 2013, 2014, 2015 годов. Оставайтесь с нами, качайте любимые фильмы, игры, сериалы, книги и музыку.