img image001 image001 image001 image001 image001 image001 image001 image001 image001 image001 image001 image001 image001 image001 image001

Planets Sun Sun Sun
Статистика раздачи
Автор: PriZraK | Размер: 2.27 ГБ | Добавлен: 13 мар 2016
Раздают: 15    Качают: 7
Скачать торрент
Скачать торрент
Описание торрента

СообщениеДобавлено: 13 мар 2016 

Информация о фильме
Название: Йоко
Оригинальное название: Yoko
Год выхода: 2015
Жанр: мультфильм, образовательный, детский, приключения
Страна: Россия, Испания
Студия: Wizart Animation, Somyga
Продолжительность: 21 x ~ 00:12:55
Перевод: не требуется
Режиссеры: Хуанхо Элорди, Джалил Ризванов, Джуанма Санчес
Сценарий: Энди Еркес, Евгения Голубева, Лев Мурзенко
Роли озвучивали: Светлана Пермякова, Архип Лебедев, Василиса Эльдарова, Вова Войтюк
О фильме:
История трех друзей, которые каждый день встречаются и играют в Городском парке. Волшебный друг Йоко (в переводе с баскского «дух игры») помогает детям оживить их игры и превращает придумки троицы в реальность, вовлекая их в невероятный мир. Вместе с героями маленькие зрители могут оказаться на дне озера, в космосе, бушующем море, сказочном лесу, сказках, древних городах и тысяче других мест, магия Йоко безгранична...
Одна из задач сериала — образовательная, что позволяет детям узнавать больше об истории, традициях, внешнем мире, его флоре и фауне.
01. Наша Даша
02. Вперед, в поход!
03. Замок Майи
04. Веселый субботник
05. В поисках сокровищ
06. Двойные прятки
07. Зимняя страна чудес
08. Лучшая зверушка
09. Подводные приключения
10. Космические салочки
11. Вик на льду
12. Бумажные самолетики
13. Самый лучший динозавр
14. Новый мяч
15. Цвета
16. Старые игрушки
17. Новые друзья
18. Первый день в парке
19. Наперегонки
20. Дождливый день
21. Робот



Доп. информация:
Семпл


Файл
Формат: AVI
Качество: WEBRip
Видео: 704x400 (1.76:1), 24 fps, XviD build 65 ~999 kbps avg, 0.15 bit/pixel
Звук: 48 kHz, AC3 Dolby Digital, 2/0 (L,R) ch, ~192.00 kbps avg
Субтитры: нет
13. Самый лучший динозавр. XviD-merci-.avi
Format : AVI
Format/Info : Audio Video Interleave
File size : 111 MiB
Duration : 12mn 55s
Overall bit rate : 1 202 Kbps
Writing application : VirtualDubMod 1.5.10.3 | www.virtualdub-fr.org || (build 2550/release)
Writing library : VirtualDubMod build 2550/release
Video
ID : 0
Format : MPEG-4 Visual
Format profile : Advanced Simple@L5
Format settings, BVOP : 1
Format settings, QPel : No
Format settings, GMC : No warppoints
Format settings, Matrix : Default (MPEG)
Codec ID : XVID
Codec ID/Hint : XviD
Duration : 12mn 55s
Bit rate : 1 000 Kbps
Width : 704 pixels
Height : 400 pixels
Display aspect ratio : 16:9
Frame rate : 24.000 fps
Color space : YUV
Chroma subsampling : 4:2:0
Bit depth : 8 bits
Scan type : Progressive
Compression mode : Lossy
Bits/(Pixel*Frame) : 0.148
Stream size : 92.4 MiB (83%)
Writing library : XviD 65
Audio
ID : 1
Format : AC-3
Format/Info : Audio Coding 3
Mode extension : CM (complete main)
Format settings, Endianness : Big
Codec ID : 2000
Duration : 12mn 55s
Bit rate mode : Constant
Bit rate : 192 Kbps
Channel(s) : 2 channels
Channel positions : Front: L R
Sampling rate : 48.0 KHz
Frame rate : 31.250 fps (1536 spf)
Compression mode : Lossy
Stream size : 17.7 MiB (16%)
Alignment : Split accross interleaves
Interleave, duration : 42 ms (1.00 video frame)
Interleave, preload duratio : 500 ms


Релиз от: -merci-[/b]



   Похожие торренты   Торрент   Размер 
В этой теме нет новых непрочитанных сообщений. Йоко / Yoko [01-21 из ?] (2015) WEBRip 1080p от -merci-

7 | 4

3.88 ГБ

В этой теме нет новых непрочитанных сообщений. Йоко / Yoko [01-21 из ?] (2015) WEBRip 720p от -merci-

18 | 6

2.54 ГБ

В этой теме нет новых непрочитанных сообщений. Йоко / Yoko (2012) HDRip | P

182 | 10

1.46 ГБ

В этой теме нет новых непрочитанных сообщений. Йоко / Yoko (2012) SATRip от CinemaClub

14 | 2

699.82 МБ

В этой теме нет новых непрочитанных сообщений. Йоко / Yoko (2012) SATRip от CinemaClub

29 | 2

1.45 ГБ

В этой теме нет новых непрочитанных сообщений. Малышарики [01-15 из ?] (2015) WEBRip от -merci-

278 | 16

535.23 МБ

В этой теме нет новых непрочитанных сообщений. Бумажки [01-31] (2015) WEBRip от -merci-

33 | 8

2.15 ГБ




Вы не можете начинать темы
Вы не можете отвечать на сообщения
Вы не можете редактировать свои сообщения
Вы не можете удалять свои сообщения
Вы не можете добавлять вложения

Перейти:  
Для Мосгорсуда, Роскомнадзора и рекламодателей: mosgorsud-torrent[собачка]yandex.ru
 Вход
ppkBB3cker v.2 © 2008-2014 @ PPK
[ Time : 0.023s | 16 Queries | GZIP : On ]

Торрент трекер RUTOR.IN, Не можете зайти на rutor.org? Какой новый адрес рутор? Какое зеркало рутор? Не работает rutor.org и зеркала? Тогда наш торрент специально для вас. Rutor.in неофициальное зеркало rutor. В случае если у Вас заблокирован rutor или вдруг Вы не можете на него зайти, то Вы без труда сможете скачать бесплатно и без рекламы последние новинки кино, игр, сериалов и прочего у нас, на Rutor.in. Не нужно использовать прокси, чтобы зайти на рутор, достаточно воспользоваться нашим ресурсом. Все новые фильмы, игры, сериалы, книги и музыка за 2013 и 2014 годы через торрент бесплатно. Скачивайте фильмы в хорошем качестве, игры для пк, xbox, playstation без регистрации. У нас вы найдете новые Зарубежные сериалы и Русские сериалы 2013, 2014, 2015 годов. Оставайтесь с нами, качайте любимые фильмы, игры, сериалы, книги и музыку.