img image001 image001 image001 image001 image001 image001 image001 image001 image001 image001 image001 image001 image001 image001 image001

Planets Sun Sun Sun
Статистика раздачи
Автор: Nickolas3434 | Размер: 1.34 ГБ | Добавлен: 15 мар 2016
Раздают: 103    Качают: 3
Скачать торрент
Скачать торрент
Описание торрента

СообщениеДобавлено: 15 мар 2016 

Информация о фильме
Название: Мусти
Оригинальное название: Musti
Год выхода: 2007
Страна: Бельгия, ER Productions-Paradiso TV
Жанр: Мультсериал, детский, обучающий
Продолжительность: 52 x ~ 00:05:00
Перевод: Профессиональный дублированный
Режиссер: Вернер Джекует
В ролях: Котенок Мусти и её друзья
О фильме:
Котенка Мусти интересует абсолютно все, так как в ее маленьком возрасте ежедневно для себя она открывает все новые и новые открытия. С друзьями Мусти учится читать, писать, рисовать и конечно же петь. Этот мир такой огромный и интересный и столько всего прекрасного и познавательного, поэтому Мусти никогда просто так не теряет время. Она очень доброжелательна и приветлива. Ее дружелюбный характер, как бы притягивает к себе, и Мусти все время знакомиться и заводит себе новых друзей, с которыми потом и играет.
01. Сокровища Пиратов
02. Верхом на банане
03. Морские спасатели
04. Мультфильм про самолет
05. Попугай Коко
06. Воздушный змей
07. Дельфин Долли
08. Цирк
09. Обезьянка Бонго
10. Мультфильм про паровозик
11. Мультфильм про машинки и гонки
12. Большая уборка
13. Прекрасный принц
14. Дорожное движение
15. Блинчики
16. Снова в школу
17. Сорока-воровка
18. Летняя гроза
19. Влюбленный пес
20. Новые соседи
21. Огород
22. Спасение черепахи
23. Неблагодарный кролик
24. Мороженое для всех
25. Ночной воришка
26. Беспечная птица
27. Зимнее приключение
28. Трусливый утенок
29. Новогодняя елка
30. Снеговик
31. Саночки
32. Жадина
33. Свет и тень
34. Два кролика
35. Собачья Будка
36. Суета в лесу
37. Зимняя спячка
38. Шкаф с игрушками
39. Прибавление в Семействе
40. День рождения
41. Карнавал
42. Путешествие на Луну
43. Птенцы
44. Мыльные Пузыри
45. Племянники кролика
46. Что случилось с петухом
47. Розы и Шипы
48. Большое и Маленькое
49. Заклинатель дождя
50. На ферме
51. Как лечить простуду
52. Кто любит дождь

Доп. информация: Сэмпл


Файл
Формат: AVI
Качество: WEBRip
Видео: 720x400 (1.80:1), 25 fps, XviD build 73 ~660 kbps avg, 0.09 bit/pixel
Звук: 48 kHz, AC3 Dolby Digital, 2/0 (L,R) ch, ~192.00 kbps avg
Субтитры: нет
02. Верхом на банане.Xvid.avi
Формат : AVI
Формат/Информация : Audio Video Interleave
Размер файла : 30,8 Мбайт
Продолжительность : 4 м. 59 с.
Общий поток : 863 Кбит/сек
Программа кодирования : VirtualDubMod 1.5.10.3 | www.virtualdub-fr.org || (build 2550/release)
Библиотека кодирования : VirtualDubMod build 2550/release
Видео
Идентификатор : 0
Формат : MPEG-4 Visual
Профиль формата : Advanced Simple@L5
Параметр BVOP формата : 1
Параметр QPel формата : Нет
Параметр GMC формата : Без точки перехода
Параметр матрицы формата : Default (H.263)
Идентификатор кодека : XVID
Идентификатор кодека/Подсказка : XviD
Продолжительность : 4 м. 59 с.
Битрейт : 661 Кбит/сек
Ширина : 720 пикселей
Высота : 400 пикселей
Соотношение сторон : 16:9
Частота кадров : 25,000 кадров/сек
Цветовое пространство : YUV
Субдискретизация насыщенности : 4:2:0
Битовая глубина : 8 бит
Тип развёртки : Прогрессивная
Метод сжатия : С потерями
Бит/(Пиксели*Кадры) : 0.092
Размер потока : 23,6 Мбайт (77%)
Библиотека кодирования : XviD 73
Аудио
Идентификатор : 1
Формат : AC-3
Формат/Информация : Audio Coding 3
Расширение режима : CM (complete main)
Параметр Endianness формата : Big
Идентификатор кодека : 2000
Продолжительность : 4 м. 59 с.
Вид битрейта : Постоянный
Битрейт : 192 Кбит/сек
Каналы : 2 канала
Расположение каналов : Front: L R
Частота : 48,0 КГц
Битовая глубина : 16 бит
Метод сжатия : С потерями
Размер потока : 6,85 Мбайт (22%)
Выравнивание : Разделение по промежуткам
Продолжительность промежутка : 40 мс. (1,00 видеокадр)
Время предзагрузки промежутка : 500 мс.
Заголовок : rus


Релиз от: -merci-



   Похожие торренты   Торрент   Размер 
В этой теме нет новых непрочитанных сообщений. Бумажки [01-31] (2015) WEBRip от -merci-

33 | 8

2.15 ГБ

В этой теме нет новых непрочитанных сообщений. Малышарики [01-15 из ?] (2015) WEBRip от -merci-

271 | 16

535.23 МБ

В этой теме нет новых непрочитанных сообщений. Катя и Мим-Мим / Kate and Mim-Mim [01-39 из 52] (2014) WEBRip от -merci- | D

7 | 1

5.12 ГБ

В этой теме нет новых непрочитанных сообщений. Бумажки [01-28] (2015) WEBRip 720p от -merci-

122 | 4

1.84 ГБ

В этой теме нет новых непрочитанных сообщений. Йоко / Yoko [01-21 из ?] (2015) WEBRip от -merci-

15 | 7

2.27 ГБ

В этой теме нет новых непрочитанных сообщений. Катя и Мим-Мим / Kate and Mim-Mim [01-39 из 52] (2014) WEBRip от -merci- | D

7 | 3

5.38 ГБ

В этой теме нет новых непрочитанных сообщений. Малышарики [01-15 из ?] (2015) WEBRip 1080p от -merci-

213 | 7

983.63 МБ




Вы не можете начинать темы
Вы не можете отвечать на сообщения
Вы не можете редактировать свои сообщения
Вы не можете удалять свои сообщения
Вы не можете добавлять вложения

Перейти:  
Для Мосгорсуда, Роскомнадзора и рекламодателей: mosgorsud-torrent[собачка]yandex.ru
 Вход
ppkBB3cker v.2 © 2008-2014 @ PPK
[ Time : 0.052s | 17 Queries | GZIP : Off ]
CGP output time : 0.062s | 5 Queries | GZIP : Off

Торрент трекер RUTOR.IN, Не можете зайти на rutor.org? Какой новый адрес рутор? Какое зеркало рутор? Не работает rutor.org и зеркала? Тогда наш торрент специально для вас. Rutor.in неофициальное зеркало rutor. В случае если у Вас заблокирован rutor или вдруг Вы не можете на него зайти, то Вы без труда сможете скачать бесплатно и без рекламы последние новинки кино, игр, сериалов и прочего у нас, на Rutor.in. Не нужно использовать прокси, чтобы зайти на рутор, достаточно воспользоваться нашим ресурсом. Все новые фильмы, игры, сериалы, книги и музыка за 2013 и 2014 годы через торрент бесплатно. Скачивайте фильмы в хорошем качестве, игры для пк, xbox, playstation без регистрации. У нас вы найдете новые Зарубежные сериалы и Русские сериалы 2013, 2014, 2015 годов. Оставайтесь с нами, качайте любимые фильмы, игры, сериалы, книги и музыку.