img image001 image001 image001 image001 image001 image001 image001 image001 image001 image001 image001 image001 image001 image001 image001

Planets Sun Sun Sun
Статистика раздачи
Автор: Nickolas3434 | Размер: 1.05 ГБ | Добавлен: 15 мар 2016
Раздают: 24    Качают: 0
Скачать торрент
Скачать торрент
Описание торрента

СообщениеДобавлено: 15 мар 2016 

Информация о фильме
Название: Пиноккио в открытом космосе
Оригинальное название: Pinocchio in Outer Space
Год выхода: 1965
Страна: США, Бельгия, Belvision
Жанр: Мультфильм, детский, семейный, приключения, полнометражный
Продолжительность: 01:02:55
Перевод: Профессиональный (многоголосый закадровый)
Режиссер: Рэй Гуссенс
В ролях: Питер Лазер, Арнольд Стэнг, Джесс Кэйн, Конрад Джеймисон, Мевис Мимс, Рэй Оуэнс, Минерва Пиус, Норман Роуз
О фильме:
Созданный добрым мастером Джепетто и оживленный волшебством, Пиноккио – маленький деревянный человечек, ничего не желает так сильно, как стать настоящим мальчиком. Но не все так просто – его ждет космическое путешествие, опасные неземные существа и давние знакомые – Хитрый Лис и Кот.


Доп. информация:
Сэмпл


Файл
Формат: MKV
Качество: DVDRip-AVC
Видео: MPEG-4 AVC, [email protected], ~ 2200 Kbps, 25.000 fps
Звук: 48.0 KHz, AC3 2.0, 192 Kbps
Субтитры: нет
Пиноккио в открытом космосе.1965.DVDRip-AVC.-merci.mkv
Format : Matroska
Format version : Version 2
File size : 1.05 GiB
Duration : 1h 2mn
Overall bit rate : 2 394 Kbps
Encoded date : UTC 2014-10-24 21:26:04
Writing application : mkvmerge v5.8.0 ('No Sleep / Pillow') built on Sep 2 2012 15:37:04
Writing library : libebml v1.2.3 + libmatroska v1.3.0
Video
ID : 1
Format : AVC
Format/Info : Advanced Video Codec
Format profile : High@L4.1
Format settings, CABAC : Yes
Format settings, ReFrames : 8 frames
Codec ID : V_MPEG4/ISO/AVC
Duration : 1h 2mn
Bit rate : 2 200 Kbps
Width : 720 pixels
Height : 576 pixels
Display aspect ratio : 16:9
Frame rate mode : Constant
Frame rate : 25.000 fps
Standard : PAL
Color space : YUV
Chroma subsampling : 4:2:0
Bit depth : 8 bits
Scan type : Progressive
Bits/(Pixel*Frame) : 0.212
Stream size : 969 MiB (90%)
Writing library : x264 core 125 r2208 d9d2288
Encoding settings : cabac=1 / ref=8 / deblock=1:-2:-2 / analyse=0x3:0x133 / me=umh / subme=11 / psy=1 / psy_rd=1.15:0.25 / mixed_ref=1 / me_range=32 / chroma_me=1 / trellis=2 / 8x8dct=1 / cqm=0 / deadzone=21,11 / fast_pskip=0 / chroma_qp_offset=-4 / threads=6 / lookahead_threads=1 / sliced_threads=0 / nr=0 / decimate=0 / interlaced=0 / bluray_compat=0 / constrained_intra=0 / bframes=5 / b_pyramid=2 / b_adapt=2 / b_bias=0 / direct=3 / weightb=1 / open_gop=0 / weightp=2 / keyint=250 / keyint_min=25 / scenecut=40 / intra_refresh=0 / rc=2pass / mbtree=0 / bitrate=2200 / ratetol=1.0 / qcomp=0.75 / qpmin=0 / qpmax=69 / qpstep=4 / cplxblur=20.0 / qblur=0.5 / ip_ratio=1.40 / pb_ratio=1.30 / aq=2:0.80
Default : Yes
Forced : No
Color range : Limited
Color primaries : BT.709
Transfer characteristics : BT.709
Matrix coefficients : BT.709
Audio
ID : 2
Format : AC-3
Format/Info : Audio Coding 3
Mode extension : CM (complete main)
Format settings, Endianness : Big
Codec ID : A_AC3
Duration : 1h 2mn
Bit rate mode : Constant
Bit rate : 192 Kbps
Channel(s) : 2 channels
Channel positions : Front: L R
Sampling rate : 48.0 KHz
Frame rate : 31.250 fps (1536 spf)
Compression mode : Lossy
Stream size : 86.4 MiB (8%)
Default : Yes
Forced : No


Релиз от: -merci-



   Похожие торренты   Торрент   Размер 
В этой теме нет новых непрочитанных сообщений. Пиноккио в открытом космосе / Pinocchio in Outer Space (1965) DVDRip от -merci- | P

6 | 2

990.66 МБ

В этой теме нет новых непрочитанных сообщений. Пиноккио в открытом космосе / Pinocchio in Outer Space (1965) DVDRip - Puzkarapuz

4 | 3

699.21 МБ

В этой теме нет новых непрочитанных сообщений. Пиноккио в открытом космосе / Pinocchio in Outer Space (1965) DVDRip от Sheikn

0 | 3

811.23 МБ

В этой теме нет новых непрочитанных сообщений. Пиноккио в открытом космосе / Pinocchio in Outer Space (1965) DVD5 от Youtracker | P | Лицензия

0 | 1

2.69 ГБ

В этой теме нет новых непрочитанных сообщений. В открытом космосе / Outer Touch (1979) DVDRip | P

2 | 2

743.1 МБ

В этой теме нет новых непрочитанных сообщений. В открытом космосе / Outer Touch (1979) DVDRip от ExKinoRay | P

185 | 11

1.2 ГБ

В этой теме нет новых непрочитанных сообщений. Плохой Пиноккио / Злой Пиноккио / Pinocchio's Revenge (1996) DVDRip

1 | 2

700.06 МБ




Вы не можете начинать темы
Вы не можете отвечать на сообщения
Вы не можете редактировать свои сообщения
Вы не можете удалять свои сообщения
Вы не можете добавлять вложения

Перейти:  
Для Мосгорсуда, Роскомнадзора и рекламодателей: mosgorsud-torrent[собачка]yandex.ru
 Вход
ppkBB3cker v.2 © 2008-2014 @ PPK
[ Time : 0.022s | 15 Queries | GZIP : Off ]

Торрент трекер RUTOR.IN, Не можете зайти на rutor.org? Какой новый адрес рутор? Какое зеркало рутор? Не работает rutor.org и зеркала? Тогда наш торрент специально для вас. Rutor.in неофициальное зеркало rutor. В случае если у Вас заблокирован rutor или вдруг Вы не можете на него зайти, то Вы без труда сможете скачать бесплатно и без рекламы последние новинки кино, игр, сериалов и прочего у нас, на Rutor.in. Не нужно использовать прокси, чтобы зайти на рутор, достаточно воспользоваться нашим ресурсом. Все новые фильмы, игры, сериалы, книги и музыка за 2013 и 2014 годы через торрент бесплатно. Скачивайте фильмы в хорошем качестве, игры для пк, xbox, playstation без регистрации. У нас вы найдете новые Зарубежные сериалы и Русские сериалы 2013, 2014, 2015 годов. Оставайтесь с нами, качайте любимые фильмы, игры, сериалы, книги и музыку.