img image001 image001 image001 image001 image001 image001 image001 image001 image001 image001 image001 image001 image001 image001 image001

Planets Sun Sun Sun
Статистика раздачи
Автор: Nickolas3434 | Размер: 990.66 МБ | Добавлен: 15 мар 2016
Раздают: 6    Качают: 2
Скачать торрент
Скачать торрент
Описание торрента

СообщениеДобавлено: 15 мар 2016 

Информация о фильме
Название: Пиноккио в открытом космосе
Оригинальное название: Pinocchio in Outer Space
Год выхода: 1965
Страна: США, Бельгия, Belvision
Жанр: Мультфильм, детский, семейный, приключения, полнометражный
Продолжительность: 01:02:55
Перевод: Профессиональный (многоголосый закадровый)
Режиссер: Рэй Гуссенс
В ролях: Питер Лазер, Арнольд Стэнг, Джесс Кэйн, Конрад Джеймисон, Мевис Мимс, Рэй Оуэнс, Минерва Пиус, Норман Роуз
О фильме:
Созданный добрым мастером Джепетто и оживленный волшебством, Пиноккио – маленький деревянный человечек, ничего не желает так сильно, как стать настоящим мальчиком. Но не все так просто – его ждет космическое путешествие, опасные неземные существа и давние знакомые – Хитрый Лис и Кот.


Доп. информация:
Сэмпл


Файл
Формат: AVI
Качество: DVDRip
Видео: 720x400 (1.80:1), 25 fps, XviD build 65 ~1999 kbps avg, 0.28 bit/pixel
Звук: 48 kHz, AC3 Dolby Digital, 2/0 (L,R) ch, ~192.00 kbps avg
Субтитры: нет
Пиноккио в открытом космосе.1965.DVDRip.XviD-merci-.avi
Format : AVI
Format/Info : Audio Video Interleave
File size : 991 MiB
Duration : 1h 2mn
Overall bit rate : 2 202 Kbps
Writing application : VirtualDubMod 1.5.10.3 | www.virtualdub-fr.org || (build 2550/release)
Writing library : VirtualDubMod build 2550/release
Video
ID : 0
Format : MPEG-4 Visual
Format profile : Advanced Simple@L5
Format settings, BVOP : 1
Format settings, QPel : No
Format settings, GMC : No warppoints
Format settings, Matrix : Default (MPEG)
Codec ID : XVID
Codec ID/Hint : XviD
Duration : 1h 2mn
Bit rate : 2 000 Kbps
Width : 720 pixels
Height : 400 pixels
Display aspect ratio : 16:9
Frame rate : 25.000 fps
Color space : YUV
Chroma subsampling : 4:2:0
Bit depth : 8 bits
Scan type : Progressive
Compression mode : Lossy
Bits/(Pixel*Frame) : 0.278
Stream size : 900 MiB (91%)
Writing library : XviD 65
Audio
ID : 1
Format : AC-3
Format/Info : Audio Coding 3
Mode extension : CM (complete main)
Format settings, Endianness : Big
Codec ID : 2000
Duration : 1h 2mn
Bit rate mode : Constant
Bit rate : 192 Kbps
Channel(s) : 2 channels
Channel positions : Front: L R
Sampling rate : 48.0 KHz
Frame rate : 31.250 fps (1536 spf)
Compression mode : Lossy
Stream size : 86.4 MiB (9%)
Alignment : Split accross interleaves
Interleave, duration : 40 ms (1.00 video frame)
Interleave, preload duratio : 500 ms


Релиз от: -merci-



   Похожие торренты   Торрент   Размер 
В этой теме нет новых непрочитанных сообщений. Пиноккио в открытом космосе / Pinocchio in Outer Space (1965) DVDRip-AVC от -merci- | P

24 | 0

1.05 ГБ

В этой теме нет новых непрочитанных сообщений. Пиноккио в открытом космосе / Pinocchio in Outer Space (1965) DVDRip - Puzkarapuz

4 | 3

699.21 МБ

В этой теме нет новых непрочитанных сообщений. Пиноккио в открытом космосе / Pinocchio in Outer Space (1965) DVDRip от Sheikn

0 | 3

811.23 МБ

В этой теме нет новых непрочитанных сообщений. Пиноккио в открытом космосе / Pinocchio in Outer Space (1965) DVD5 от Youtracker | P | Лицензия

0 | 1

2.69 ГБ

В этой теме нет новых непрочитанных сообщений. В открытом космосе / Outer Touch (1979) DVDRip | P

2 | 2

743.1 МБ

В этой теме нет новых непрочитанных сообщений. В открытом космосе / Outer Touch (1979) DVDRip от ExKinoRay | P

185 | 11

1.2 ГБ

В этой теме нет новых непрочитанных сообщений. Плохой Пиноккио / Злой Пиноккио / Pinocchio's Revenge (1996) DVDRip

1 | 2

700.06 МБ




Вы не можете начинать темы
Вы не можете отвечать на сообщения
Вы не можете редактировать свои сообщения
Вы не можете удалять свои сообщения
Вы не можете добавлять вложения

Перейти:  
Для Мосгорсуда, Роскомнадзора и рекламодателей: mosgorsud-torrent[собачка]yandex.ru
 Вход
ppkBB3cker v.2 © 2008-2014 @ PPK
[ Time : 0.087s | 18 Queries | GZIP : On ]

Торрент трекер RUTOR.IN, Не можете зайти на rutor.org? Какой новый адрес рутор? Какое зеркало рутор? Не работает rutor.org и зеркала? Тогда наш торрент специально для вас. Rutor.in неофициальное зеркало rutor. В случае если у Вас заблокирован rutor или вдруг Вы не можете на него зайти, то Вы без труда сможете скачать бесплатно и без рекламы последние новинки кино, игр, сериалов и прочего у нас, на Rutor.in. Не нужно использовать прокси, чтобы зайти на рутор, достаточно воспользоваться нашим ресурсом. Все новые фильмы, игры, сериалы, книги и музыка за 2013 и 2014 годы через торрент бесплатно. Скачивайте фильмы в хорошем качестве, игры для пк, xbox, playstation без регистрации. У нас вы найдете новые Зарубежные сериалы и Русские сериалы 2013, 2014, 2015 годов. Оставайтесь с нами, качайте любимые фильмы, игры, сериалы, книги и музыку.