img image001 image001 image001 image001 image001 image001 image001 image001 image001 image001 image001 image001 image001 image001 image001

Planets Sun Sun Sun
Статистика раздачи
Автор: Nickolas3434 | Размер: 4.81 ГБ | Добавлен: 15 мар 2016
Раздают: 123    Качают: 12
Скачать торрент
Скачать торрент
Описание торрента

СообщениеДобавлено: 15 мар 2016 

Информация о фильме
Название: Пингвиненок Пороро
Оригинальное название: Pororo The Little Penguin
Год выхода: 2007
Страна: Южная Корея, Iconix Entertainment
Жанр: Мультсериал, детский, семейный, приключения, музыкальный
Продолжительность: 52 x ~ 00:07:47
Перевод: Профессиональный дублированный
Режиссер: Ким Хыым Жин
О фильме:
Добрый музыкальный мультсериал расскажет маленьким зрителям о жизни в заметённой снегом деревушке, которая находится на крошечном островке, затерявшемся где-то на краю земли. Там живут разные зверюшки: добрый полярный медведь Поби, не в меру любопытный лисёнок Эдди, мудрый, но очень стеснительный бобёр Лупи, динозаврик Кронг и главный герой мультсериала — пингвинёнок Пороро. Большую часть времени друзья проводят вместе. Они забавляются, шутят и играют друг с другом, а если попадают в затруднительные ситуации, то всегда готовы прийти на помощь и выручить попавшего в беду приятеля.
01. Попо и Пипи
02. Все такое удивительное
03. Рождение Роди
04. Счастливчик Роди
05. Игрушечный самолет
06. Дракон-Волшебник
07. Я хочу быть супергероем!
08. Могучий Гарри
09. Поймать большую рыбу
10. Это моя игрушка
11. Принцесса Лупи
12. Странный футбол
13. Осторожно, Эдди!
14. Неприятности на кухне
15. Неуклюжий волшебник
16. Прогноз погоды
17. Спасибо, Эдди!
18. Подарок Лупи
19. Поиграть с Кронгом
20. Летающий Поби
21. Петти - Красная шапочка
22. Звезда бейсбола, Роди
23. Шалун Няу
24. Петти и Няу
25. Вредный ветер
26. Поби пропал
27. Кукла Лупи
28. Любовь к пению
29. Чудесная волшебная палочка
30. Поби, ты самый лучший !
31. Ночные чудеса
32. Куда улетел Мяч
33. Игрушечная жаба
34. Забавные каракули
35. Кронг и падающая звезда
36. Простудился
37. Странные игры
38. Лучшие друзья
39. День рождения Поби
40. Песня Эдди
41. Машина для клонирования
42. Неприятности с уборкой
43. Странное приключение. Часть 1
44. Странное приключение. Часть 2
45. Гонки на санках
46. Сон Роди
47. Волшебный напиток. Часть 1
48. Волшебный напиток. Часть 2
49. Весёлый пикник
50. Эдди простудился
51. Снежный день
52. Чудесная игровая площадка

Доп. информация:
Сэмпл


Файл
Формат: AVI
Качество: WEB-DLRip
Видео: 720x400 (1.80:1), 23.976 fps, XviD build 65 ~1500 kbps avg, 0.22 bit/pixel
Звук: 48 kHz, AC3 Dolby Digital, 2/0 (L,R) ch, ~192.00 kbps avg
Субтитры: нет
s03e11. Принцесса Лупи. XviD.-merci.avi
Format : AVI
Format/Info : Audio Video Interleave
File size : 94.8 MiB
Duration : 7mn 47s
Overall bit rate : 1 702 Kbps
Writing application : VirtualDubMod 1.5.10.3 | www.virtualdub-fr.org || (build 2550/release)
Writing library : VirtualDubMod build 2550/release
Video
ID : 0
Format : MPEG-4 Visual
Format profile : Advanced Simple@L5
Format settings, BVOP : 1
Format settings, QPel : No
Format settings, GMC : No warppoints
Format settings, Matrix : Default (MPEG)
Codec ID : XVID
Codec ID/Hint : XviD
Duration : 7mn 47s
Bit rate : 1 500 Kbps
Width : 720 pixels
Height : 400 pixels
Display aspect ratio : 16:9
Frame rate : 23.976 (23976/1000) fps
Color space : YUV
Chroma subsampling : 4:2:0
Bit depth : 8 bits
Scan type : Progressive
Compression mode : Lossy
Bits/(Pixel*Frame) : 0.217
Stream size : 83.6 MiB (88%)
Writing library : XviD 65
Audio
ID : 1
Format : AC-3
Format/Info : Audio Coding 3
Mode extension : CM (complete main)
Format settings, Endianness : Big
Codec ID : 2000
Duration : 7mn 47s
Bit rate mode : Constant
Bit rate : 192 Kbps
Channel(s) : 2 channels
Channel positions : Front: L R
Sampling rate : 48.0 KHz
Frame rate : 31.250 fps (1536 spf)
Compression mode : Lossy
Stream size : 10.7 MiB (11%)
Alignment : Split accross interleaves
Interleave, duration : 42 ms (1.00 video frame)
Interleave, preload duratio : 500 ms


Релиз от: -merci-



   Похожие торренты   Торрент   Размер 
В этой теме нет новых непрочитанных сообщений. Пингвиненок Пороро / Pororo The Little Penguin [01x01-52 из 52] (2007) WEB-DLRip от -merci- | D

177 | 14

4.45 ГБ

В этой теме нет новых непрочитанных сообщений. Пингвиненок Пороро / Pororo The Little Penguin [02x01-52 из 52] (2007) WEB-DLRip от -merci- | D

29 | 6

4.38 ГБ

В этой теме нет новых непрочитанных сообщений. Пингвиненок Пороро / Pororo the Little Penguin [01-52] (2007) SATRip | D

1040 | 170

4.43 ГБ

В этой теме нет новых непрочитанных сообщений. Пингвиненок Пороро / Pororo the Little Penguin [02x01-52] (2007) SATRip | D

630 | 110

4.36 ГБ

В этой теме нет новых непрочитанных сообщений. Пингвиненок Пороро / Pororo the Little Penguin [02x01-22] (2007) SATRip | D

246 | 94

1.84 ГБ

В этой теме нет новых непрочитанных сообщений. Пингвиненок Пороро / Pororo the Little Penguin [02x01-31] (2007) SATRip | D

54 | 83

2.6 ГБ

В этой теме нет новых непрочитанных сообщений. Пингвиненок Пороро / Pororo the Little Penguin [02x01-43] (2007) SATRip | D

169 | 43

3.6 ГБ




Вы не можете начинать темы
Вы не можете отвечать на сообщения
Вы не можете редактировать свои сообщения
Вы не можете удалять свои сообщения
Вы не можете добавлять вложения

Перейти:  
Для Мосгорсуда, Роскомнадзора и рекламодателей: mosgorsud-torrent[собачка]yandex.ru
 Вход
ppkBB3cker v.2 © 2008-2014 @ PPK
[ Time : 0.034s | 17 Queries | GZIP : On ]

Торрент трекер RUTOR.IN, Не можете зайти на rutor.org? Какой новый адрес рутор? Какое зеркало рутор? Не работает rutor.org и зеркала? Тогда наш торрент специально для вас. Rutor.in неофициальное зеркало rutor. В случае если у Вас заблокирован rutor или вдруг Вы не можете на него зайти, то Вы без труда сможете скачать бесплатно и без рекламы последние новинки кино, игр, сериалов и прочего у нас, на Rutor.in. Не нужно использовать прокси, чтобы зайти на рутор, достаточно воспользоваться нашим ресурсом. Все новые фильмы, игры, сериалы, книги и музыка за 2013 и 2014 годы через торрент бесплатно. Скачивайте фильмы в хорошем качестве, игры для пк, xbox, playstation без регистрации. У нас вы найдете новые Зарубежные сериалы и Русские сериалы 2013, 2014, 2015 годов. Оставайтесь с нами, качайте любимые фильмы, игры, сериалы, книги и музыку.