img image001 image001 image001 image001 image001 image001 image001 image001 image001 image001 image001 image001 image001 image001 image001

Planets Sun Sun Sun
Статистика раздачи
Автор: Nickolas3434 | Размер: 4.38 ГБ | Добавлен: 15 мар 2016
Раздают: 28    Качают: 5
Скачать торрент
Скачать торрент
Описание торрента

СообщениеДобавлено: 15 мар 2016 

Информация о фильме
Название: Пингвиненок Пороро
Оригинальное название: Pororo The Little Penguin
Год выхода: 2007
Страна: Южная Корея, Iconix Entertainment
Жанр: Мультсериал, детский, семейный, приключения, музыкальный
Продолжительность: 52 x ~ 00:07:05
Перевод: Профессиональный дублированный
Режиссер: Ким Хыым Жин
О фильме:
Добрый музыкальный мультсериал расскажет маленьким зрителям о жизни в заметённой снегом деревушке, которая находится на крошечном островке, затерявшемся где-то на краю земли. Там живут разные зверюшки: добрый полярный медведь Поби, не в меру любопытный лисёнок Эдди, мудрый, но очень стеснительный бобёр Лупи, динозаврик Кронг и главный герой мультсериала — пингвинёнок Пороро. Большую часть времени друзья проводят вместе. Они забавляются, шутят и играют друг с другом, а если попадают в затруднительные ситуации, то всегда готовы прийти на помощь и выручить попавшего в беду приятеля.
01. Привет, друзья!
02. Домик для Петти
03. Учимся плавать
04. Поби — фотограф
05. Это динозавр!
06. Плавание по лесу
07. Меня зовут Гарри
08. Я люблю петь
09. Красивая заколка
10. Самый большой снеговик
11. Великий художник Кронг
12. Я умею летать
13. Я тебе завидую
14. Петти, ты молодец!
15. Пороро уменьшается
16. Нападение акулы!
17. Первое слово Кронга
18. Я Супер-Кронг
19. Шшш, это тайна
20. Спасибо, Гарри!
21. Гениальный повар
22. Кронг знакомится с тюленем
23. Белоснежка Лупи!
24. Кто это сделал?
25. Ходи на горшок!
26. Мои игрушечные друзья
27. Пороро — поросенок
28. Лупи и Петти
29. Эдди на Луне
30. Друзья из космоса
31. Ты не одинок!
32. Тайный друг Петти
33. Страшные печеньки
34. Никаких неприятностей
35. Появление дракона
36. Пропавшая игрушка
37. Не делай так!
38. Разноцветная страна
39. Хороший Кронг, плохой Кронг!
40. Меня Петти любит больше всех!
41. Гарри и Кронг исчезают
42. Тебе нужна помощь?
43. Лупи — волшебница!
44. Пороро заболел?
45. Снежный день
46. Кусок пирога
47. Снежное чудовище
48. Что это за запах?
49. Робот-повар
50. За мной гонятся микробы
51. Возвращение робота-повара
52. Осторожно, Пороро!

Доп. информация:
Сэмпл


Файл
Формат: AVI
Качество: WEB-DLRip
Видео: 720x400 (1.80:1), 23.976 fps, XviD build 65 ~1499 kbps avg, 0.22 bit/pixel
Звук: 48 kHz, AC3 Dolby Digital, 2/0 (L,R) ch, ~192.00 kbps avg
Субтитры: нет
s02e12. Я умею летать. XviD.-merci.avi
Format : AVI
Format/Info : Audio Video Interleave
File size : 86.3 MiB
Duration : 7mn 5s
Overall bit rate : 1 701 Kbps
Writing application : VirtualDubMod 1.5.10.3 | www.virtualdub-fr.org || (build 2550/release)
Writing library : VirtualDubMod build 2550/release
Video
ID : 0
Format : MPEG-4 Visual
Format profile : Advanced Simple@L5
Format settings, BVOP : 1
Format settings, QPel : No
Format settings, GMC : No warppoints
Format settings, Matrix : Default (MPEG)
Codec ID : XVID
Codec ID/Hint : XviD
Duration : 7mn 5s
Bit rate : 1 499 Kbps
Width : 720 pixels
Height : 400 pixels
Display aspect ratio : 16:9
Frame rate : 23.976 (23976/1000) fps
Color space : YUV
Chroma subsampling : 4:2:0
Bit depth : 8 bits
Scan type : Progressive
Compression mode : Lossy
Bits/(Pixel*Frame) : 0.217
Stream size : 76.1 MiB (88%)
Writing library : XviD 65
Audio
ID : 1
Format : AC-3
Format/Info : Audio Coding 3
Mode extension : CM (complete main)
Format settings, Endianness : Big
Codec ID : 2000
Duration : 7mn 5s
Bit rate mode : Constant
Bit rate : 192 Kbps
Channel(s) : 2 channels
Channel positions : Front: L R
Sampling rate : 48.0 KHz
Frame rate : 31.250 fps (1536 spf)
Compression mode : Lossy
Stream size : 9.74 MiB (11%)
Alignment : Split accross interleaves
Interleave, duration : 42 ms (1.00 video frame)
Interleave, preload duratio : 500 ms


Релиз от: -merci-



   Похожие торренты   Торрент   Размер 
В этой теме нет новых непрочитанных сообщений. Пингвиненок Пороро / Pororo The Little Penguin [01x01-52 из 52] (2007) WEB-DLRip от -merci- | D

177 | 14

4.45 ГБ

В этой теме нет новых непрочитанных сообщений. Пингвиненок Пороро / Pororo The Little Penguin [03x01-52 из 52] (2007) WEB-DLRip от -merci- | D

111 | 8

4.81 ГБ

В этой теме нет новых непрочитанных сообщений. Пингвиненок Пороро / Pororo the Little Penguin [02x01-31] (2007) SATRip | D

54 | 83

2.6 ГБ

В этой теме нет новых непрочитанных сообщений. Пингвиненок Пороро / Pororo the Little Penguin [02x01-43] (2007) SATRip | D

169 | 43

3.6 ГБ

В этой теме нет новых непрочитанных сообщений. Пингвиненок Пороро / Pororo the Little Penguin [02x01-52] (2007) SATRip | D

630 | 110

4.36 ГБ

В этой теме нет новых непрочитанных сообщений. Пингвиненок Пороро / Pororo the Little Penguin [02x01-22] (2007) SATRip | D

246 | 94

1.84 ГБ

В этой теме нет новых непрочитанных сообщений. Пингвиненок Пороро / Pororo the Little Penguin [01-52] (2007) SATRip | D

1040 | 170

4.43 ГБ




Вы не можете начинать темы
Вы не можете отвечать на сообщения
Вы не можете редактировать свои сообщения
Вы не можете удалять свои сообщения
Вы не можете добавлять вложения

Перейти:  
Для Мосгорсуда, Роскомнадзора и рекламодателей: mosgorsud-torrent[собачка]yandex.ru
 Вход
ppkBB3cker v.2 © 2008-2014 @ PPK
[ Time : 0.029s | 15 Queries | GZIP : Off ]

Торрент трекер RUTOR.IN, Не можете зайти на rutor.org? Какой новый адрес рутор? Какое зеркало рутор? Не работает rutor.org и зеркала? Тогда наш торрент специально для вас. Rutor.in неофициальное зеркало rutor. В случае если у Вас заблокирован rutor или вдруг Вы не можете на него зайти, то Вы без труда сможете скачать бесплатно и без рекламы последние новинки кино, игр, сериалов и прочего у нас, на Rutor.in. Не нужно использовать прокси, чтобы зайти на рутор, достаточно воспользоваться нашим ресурсом. Все новые фильмы, игры, сериалы, книги и музыка за 2013 и 2014 годы через торрент бесплатно. Скачивайте фильмы в хорошем качестве, игры для пк, xbox, playstation без регистрации. У нас вы найдете новые Зарубежные сериалы и Русские сериалы 2013, 2014, 2015 годов. Оставайтесь с нами, качайте любимые фильмы, игры, сериалы, книги и музыку.