img image001 image001 image001 image001 image001 image001 image001 image001 image001 image001 image001 image001 image001 image001 image001

Planets Sun Sun Sun
Статистика раздачи
Автор: Nickolas3434 | Размер: 10.81 ГБ | Добавлен: 15 мар 2016
Раздают: 255    Качают: 35
Скачать торрент
Скачать торрент
Описание торрента

СообщениеДобавлено: 15 мар 2016 

Информация о фильме
Название: Маленькие Эйнштейны
Оригинальное название: Disney's Little Einsteins
Год выпуска: 2005-2009
Выпущено: США, Walt Disney
Жанр: Мультсериал, детский, семейный, обучающий, познавательный
Продолжительность: 67 x ~ 00:23:07
Перевод: Профессиональный дублированный
Режиссер: Энди Том
В ролях: Поппи Ли Фрайер, Пьерс Стаббс, Эрика Хуанг, Эйден Помпи, Джесси Шварц, Наталия Вуйчик, Харрисон Чад, Джесси Голдберг, Эмма Штраус, Филип Тренчер
О фильме:
Мультсериал для детей от трех лет. В каждом эпизоде – кладезь полезной, интересной и увлекательной информации для ребенка. Маленькие герои сериала - Лео, Куинси, Джун и Энни – путешествуют по всему миру, заглядывают в разные уголки планеты, знакомятся с удивительными явлениями окружающей среды. Каждая серия сопровождается иллюстрациями известных художников (например, Климт, Руссо, Ван Гог) и классической музыкой (в числе композиторов Григ, Брамс, Бах и многие другие). Транспортом для четверки друзей служит музыкальная Ракета, которая может не только летать, но и плавать, превращаясь в подводную лодку.
1 сезон (2005-2006):
01. Колечко для планеты
02. Воздушные шарики
03. Венгерская икота
04. Я люблю дирижировать
05. Полярное сияние
06. Про китов
07. Ракета и сафари
08. Пиратский клад
09. Легенда Золотой Пирамиды
10. Воздушный змей
11. Ути-ути Джун
12. Правдивая история Маленьких Эйнштейнов
13. Рождественское желание
14. Держи на запад, Паровозик
15. Наш весёлый Хэллоуин
16. Энни-Садовод
17. Весна, о, да, весна
18. Энни очень храбрая
19. Мышонок и луна
20. Рыцарь добрый, рыцарь злой
21. История Большого Тотема
22. Прыг-скок, Джоуи
23. Невероятно съёженное приключение
24. Межпланетная колыбельная
25. Поздравительная машинка
26. Стучим по дереву
27. Чудесное новое платье
28. Пропавшее приглашение
2 сезон (2007-2009):
29. Энни и игрушечный самолётик
30. Бал хрустального башмачка
31. Квинси и волшебные музыкальные инструменты
32. Братишки и сестренки, на помощ!
33. Принцесса кукол
34. Музыкальный питомец по имени Мелодия
35. Супербыстро
36. Он говорит музыкой!
37. Песня Энни о любви
38. Привет, Виолончель!
39. Большие гонки Кармайна
40. Спящая фагот
41. Суп для ракеты
42. Небесные гонки - Большой реванш
43. Танец голубоногой Олуши
44. Сокровище за маленькой красной дверью
45. Мозаика Сфинкса
46. Погоня за дикими гусями
47. Ракета - Красная шапочка
48. Приключение господина пингвина и его мороженного
49. Загадочное сокровище!
50. Мелодия и я
51. Энни и бобовый стебель
52. Песня единорога
53. Квинси и музыкальные динозавры!
54. Заводной принц игрушек
55. Строй, Ракета, строй!
56. Энни получает микрофон
57. 'Угадайка' великого Шуберта
58. Глупый носок спасает цирк
59. Вперёд, команда!
60. Полет музыкальных фей
61. Музыкальный робот из космоса
62. Зверям пора перекусить
63. Большой парад маленького слонёнка
64. Ракета-букашка
65. Ракета - Пожарная машина
66. Покажи и расскажи
67. Музыкальные монстры

Доп. информация:
Семпл


Файл
Формат: AVI
Качество: WEBRip
Видео: 720x528 (1.36:1), 25 fps, XviD build 65 ~799 kbps avg, 0.08 bit/pixel
Звук: 48 kHz, AC3 Dolby Digital, 2/0 (L,R) ch, ~192.00 kbps avg
Субтитры: нет
s01e11. Ути-ути Джун. XviD.-merci-.avi
Format : AVI
Format/Info : Audio Video Interleave
File size : 165 MiB
Duration : 23mn 6s
Overall bit rate : 1 002 Kbps
Writing application : VirtualDubMod 1.5.10.3 | www.virtualdub-fr.org || (build 2550/release)
Writing library : VirtualDubMod build 2550/release
Video
ID : 0
Format : MPEG-4 Visual
Format profile : Advanced Simple@L5
Format settings, BVOP : 1
Format settings, QPel : No
Format settings, GMC : No warppoints
Format settings, Matrix : Default (H.263)
Codec ID : XVID
Codec ID/Hint : XviD
Duration : 23mn 6s
Bit rate : 800 Kbps
Width : 720 pixels
Height : 528 pixels
Display aspect ratio : 4:3
Frame rate : 25.000 fps
Color space : YUV
Chroma subsampling : 4:2:0
Bit depth : 8 bits
Scan type : Progressive
Compression mode : Lossy
Bits/(Pixel*Frame) : 0.084
Stream size : 132 MiB (80%)
Writing library : XviD 65
Audio
ID : 1
Format : AC-3
Format/Info : Audio Coding 3
Mode extension : CM (complete main)
Format settings, Endianness : Big
Codec ID : 2000
Duration : 23mn 6s
Bit rate mode : Constant
Bit rate : 192 Kbps
Channel(s) : 2 channels
Channel positions : Front: L R
Sampling rate : 48.0 KHz
Frame rate : 31.250 fps (1536 spf)
Compression mode : Lossy
Stream size : 31.7 MiB (19%)
Alignment : Split accross interleaves
Interleave, duration : 40 ms (1.00 video frame)
Interleave, preload duratio : 200 ms


Релиз от: -merci-



   Похожие торренты   Торрент   Размер 
В этой теме нет новых непрочитанных сообщений. Маленькие Эйнштейны / Little Einsteins [S01] (2005-2006) DVDRip, SATRip

58 | 9

6.45 ГБ

В этой теме нет новых непрочитанных сообщений. Феи. Маленькие приключения / Disney Fairies. Shorts [09-49 из 49] (2008-2014) WEBRip 1080p | D

736 | 86

2.61 ГБ

В этой теме нет новых непрочитанных сообщений. Маленькие рыбки / Маленькая рыбка / Little Fish (2005) BDRip 720p от FireBit

0 | 6

3.47 ГБ

В этой теме нет новых непрочитанных сообщений. Малышарики [01-15 из ?] (2015) WEBRip от -merci-

278 | 16

535.23 МБ

В этой теме нет новых непрочитанных сообщений. Бумажки [01-31] (2015) WEBRip от -merci-

33 | 8

2.15 ГБ

В этой теме нет новых непрочитанных сообщений. Малышарики [01-17 из ?] (2015-2016) WEBRip от -merci-

170 | 61

607.46 МБ

В этой теме нет новых непрочитанных сообщений. Малышарики [01-19 из ?] (2015-2016) WEBRip от -merci-

104 | 13

679.95 МБ




Вы не можете начинать темы
Вы не можете отвечать на сообщения
Вы не можете редактировать свои сообщения
Вы не можете удалять свои сообщения
Вы не можете добавлять вложения

Перейти:  
Для Мосгорсуда, Роскомнадзора и рекламодателей: mosgorsud-torrent[собачка]yandex.ru
 Вход
ppkBB3cker v.2 © 2008-2014 @ PPK
[ Time : 0.027s | 15 Queries | GZIP : On ]

Торрент трекер RUTOR.IN, Не можете зайти на rutor.org? Какой новый адрес рутор? Какое зеркало рутор? Не работает rutor.org и зеркала? Тогда наш торрент специально для вас. Rutor.in неофициальное зеркало rutor. В случае если у Вас заблокирован rutor или вдруг Вы не можете на него зайти, то Вы без труда сможете скачать бесплатно и без рекламы последние новинки кино, игр, сериалов и прочего у нас, на Rutor.in. Не нужно использовать прокси, чтобы зайти на рутор, достаточно воспользоваться нашим ресурсом. Все новые фильмы, игры, сериалы, книги и музыка за 2013 и 2014 годы через торрент бесплатно. Скачивайте фильмы в хорошем качестве, игры для пк, xbox, playstation без регистрации. У нас вы найдете новые Зарубежные сериалы и Русские сериалы 2013, 2014, 2015 годов. Оставайтесь с нами, качайте любимые фильмы, игры, сериалы, книги и музыку.