img image001 image001 image001 image001 image001 image001 image001 image001 image001 image001 image001 image001 image001 image001 image001

Planets Sun Sun Sun
Статистика раздачи
Автор: Nickolas3434 | Размер: 8.18 ГБ | Добавлен: 15 мар 2016
Раздают: 668    Качают: 157
Скачать торрент
Скачать торрент
Описание торрента

СообщениеДобавлено: 15 мар 2016 


Информация о фильме
Название: Хороший динозавр
Оригинальное название: The Good Dinosaur
Год выпуска: 2015
Страна: США
Жанр: мультфильм, фэнтези, комедия, приключения, семейный

Перевод: Дубляж - [iTunes]
Субтитры: русские, английские
Продолжительность: 01:33:50

Режиссер: Питер Сон
В ролях: Джеффри Райт (Poppa, озвучка), Фрэнсис МакДорманд (Momma, озвучка), Малиа Нипай-Падилья (Young Libby, озвучка), Райан Типл (Young Buck, озвучка), Джек МакГроу (Young Arlo, озвучка), Маркус Скрибнер (Buck, озвучка), Рэймонд Очоа (Arlo, озвучка), Джек Брайт (Spot, озвучка), Питер Сон (Pet Collector, озвучка), Стив Зан (Thunderclap, озвучка), Мэнди Фройнд (Downpour, озвучка), Стивен Клэй Хантер (Coldfront, озвучка)


Описание:
По сюжету динозавры не вымерли, а эволюционировали в разумных существ и живут и здравствуют на Земле. А вот люди остались на довольно примитивной стадии развития. Фильм расскажет историю дружбы динозавра и маленького мальчика.

Рейтинг:

MPAA: PG - Рекомендуется присутствие родителей

Качество: BDRip 1080p
Формат: MKV
Видео: AVC, 1920x804 (2.40:1), 10640 kbps, 23,976 fps, 0,287 bpp
Аудио №1: русский / AC3 / 5.1 / 48 kHz / 384 kbps / 16 bit
Аудио №2: английский / DTS / 5.1 / 48 kHz / 1510 kbps / 24 bit
Навигация по главам: есть


Релиз от: by schultz
General
Unique ID : 228892246962193689925669831993554768013 (0xAC330B122FCA43B19BE6758DE4FA108D)
Complete name : D:downloadHoroshyi. dinozavr.2015.BDRip 1080p by schultz R.G.Resident.mkv
Format : Matroska
Format version : Version 4 / Version 2
File size : 8.18 GiB
Duration : 1h 33mn
Overall bit rate : 12.5 Mbps
Encoded date : UTC 2016-03-14 23:05:00
Writing application : mkvmerge v6.7.0 ('Back to the Ground') 64bit built on Jan 8 2014 15:10:52
Writing library : libebml v1.3.0 + libmatroska v1.4.1
DURATION : 01:21:24.442000000
NUMBER_OF_FRAMES : 530
NUMBER_OF_BYTES : 14705
_STATISTICS_WRITING_APP : mkvmerge v7.7.0 ('Six Voices') 32bit built on Feb 28 2015 23:23:00
_STATISTICS_WRITING_DATE_UTC : 2016-03-14 19:44:31
_STATISTICS_TAGS : BPS DURATION NUMBER_OF_FRAMES NUMBER_OF_BYTES
Attachment : Yes
Video
ID : 1
Format : AVC
Format/Info : Advanced Video Codec
Format profile : High@L4.1
Format settings, CABAC : Yes
Format settings, ReFrames : 5 frames
Codec ID : V_MPEG4/ISO/AVC
Duration : 1h 33mn
Bit rate : 10.6 Mbps
Width : 1 920 pixels
Height : 804 pixels
Display aspect ratio : 2.40:1
Frame rate : 23.976 fps
Color space : YUV
Chroma subsampling : 4:2:0
Bit depth : 8 bits
Scan type : Progressive
Bits/(Pixel*Frame) : 0.287
Stream size : 6.78 GiB (83%)
Writing library : x264 core 146 r2538 121396c
Encoding settings : cabac=1 / ref=5 / deblock=1:-3:-3 / analyse=0x3:0x113 / me=umh / subme=11 / psy=1 / psy_rd=1.00:0.00 / mixed_ref=1 / me_range=48 / chroma_me=1 / trellis=2 / 8x8dct=1 / cqm=0 / deadzone=21,11 / fast_pskip=0 / chroma_qp_offset=-2 / threads=12 / lookahead_threads=2 / sliced_threads=0 / nr=0 / decimate=1 / interlaced=0 / bluray_compat=0 / constrained_intra=0 / bframes=9 / b_pyramid=2 / b_adapt=2 / b_bias=0 / direct=3 / weightb=1 / open_gop=0 / weightp=2 / keyint=240 / keyint_min=23 / scenecut=40 / intra_refresh=0 / rc_lookahead=40 / rc=2pass / mbtree=1 / bitrate=10640 / ratetol=1.0 / qcomp=0.60 / qpmin=0 / qpmax=69 / qpstep=4 / cplxblur=20.0 / qblur=0.5 / vbv_maxrate=14000 / vbv_bufsize=14000 / nal_hrd=none / filler=0 / ip_ratio=1.40 / aq=1:1.00
Language : English
Default : Yes
Forced : No
Audio #1
ID : 2
Format : AC-3
Format/Info : Audio Coding 3
Mode extension : CM (complete main)
Codec ID : A_AC3
Duration : 1h 33mn
Bit rate mode : Constant
Bit rate : 384 Kbps
Channel(s) : 6 channels
Channel positions : Front: L C R, Side: L R, LFE
Sampling rate : 48.0 KHz
Bit depth : 16 bits
Compression mode : Lossy
Delay relative to video : 800ms
Stream size : 258 MiB (3%)
Language : Russian
Default : Yes
Forced : No
Audio #2
ID : 3
Format : DTS
Format/Info : Digital Theater Systems
Codec ID : A_DTS
Duration : 1h 33mn
Bit rate mode : Constant
Bit rate : 1 510 Kbps
Channel(s) : 6 channels
Channel positions : Front: L C R, Side: L R, LFE
Sampling rate : 48.0 KHz
Bit depth : 24 bits
Compression mode : Lossy
Stream size : 1 013 MiB (12%)
Language : English
Default : No
Forced : No
Text #1
ID : 4
Format : UTF-8
Codec ID : S_TEXT/UTF8
Codec ID/Info : UTF-8 Plain Text
Language : Russian
Default : Yes
Forced : No
Text #2
ID : 5
Format : UTF-8
Codec ID : S_TEXT/UTF8
Codec ID/Info : UTF-8 Plain Text
Language : English
Default : No
Forced : No
Menu
00:00:00.000 : en:00:00:00.000
00:03:37.968 : en:00:03:37.968
00:06:16.459 : en:00:06:16.459
00:08:14.160 : en:00:08:14.160
00:12:12.607 : en:00:12:12.607
00:14:33.915 : en:00:14:33.915
00:17:42.353 : en:00:17:42.353
00:21:10.644 : en:00:21:10.644
00:22:58.168 : en:00:22:58.168
00:26:41.058 : en:00:26:41.058
00:29:02.616 : en:00:29:02.616
00:33:10.363 : en:00:33:10.363
00:35:28.668 : en:00:35:28.668
00:38:14.459 : en:00:38:14.459
00:41:08.841 : en:00:41:08.841
00:45:42.948 : en:00:45:42.948
00:47:47.948 : en:00:47:47.948
00:51:48.272 : en:00:51:48.272
00:55:46.969 : en:00:55:46.969
01:00:22.953 : en:01:00:22.953
01:03:59.002 : en:01:03:59.002
01:05:27.215 : en:01:05:27.215
01:07:11.778 : en:01:07:11.778
01:11:06.429 : en:01:11:06.429
01:13:43.377 : en:01:13:43.377
01:16:01.432 : en:01:16:01.432
01:19:08.494 : en:01:19:08.494
01:23:56.865 : en:01:23:56.865
01:26:01.114 : en:01:26:01.114




   Похожие торренты   Торрент   Размер 
В этой теме нет новых непрочитанных сообщений. Хороший динозавр / The Good Dinosaur (2015) Blu-ray 1080p | iTunes

49 | 22

34.13 ГБ

В этой теме нет новых непрочитанных сообщений. Хороший динозавр / The Good Dinosaur (2015) BDRip 720p | iTunes

782 | 272

5.53 ГБ

В этой теме нет новых непрочитанных сообщений. Хороший динозавр / The Good Dinosaur (2015) BDRip от Twi7ter | iTunes

2073 | 178

1.42 ГБ

В этой теме нет новых непрочитанных сообщений. Хороший динозавр / The Good Dinosaur (2015) BDRip 720p | iTunes

883 | 31

2.69 ГБ

В этой теме нет новых непрочитанных сообщений. Хороший динозавр / The Good Dinosaur (2015) BDRip 1080p | Line

7813 | 179

4.51 ГБ

В этой теме нет новых непрочитанных сообщений. Хороший динозавр / The Good Dinosaur (2015) BDRip 1080p | Лицензия

777 | 43

10.1 ГБ

В этой теме нет новых непрочитанных сообщений. Хороший динозавр / The Good Dinosaur (2015) BDRip 1080p от ExKinoRay | Лицензия

724 | 52

7.37 ГБ




Вы не можете начинать темы
Вы не можете отвечать на сообщения
Вы не можете редактировать свои сообщения
Вы не можете удалять свои сообщения
Вы не можете добавлять вложения

Перейти:  
Для Мосгорсуда, Роскомнадзора и рекламодателей: mosgorsud-torrent[собачка]yandex.ru
 Вход
ppkBB3cker v.2 © 2008-2014 @ PPK
[ Time : 0.031s | 14 Queries | GZIP : On ]

Торрент трекер RUTOR.IN, Не можете зайти на rutor.org? Какой новый адрес рутор? Какое зеркало рутор? Не работает rutor.org и зеркала? Тогда наш торрент специально для вас. Rutor.in неофициальное зеркало rutor. В случае если у Вас заблокирован rutor или вдруг Вы не можете на него зайти, то Вы без труда сможете скачать бесплатно и без рекламы последние новинки кино, игр, сериалов и прочего у нас, на Rutor.in. Не нужно использовать прокси, чтобы зайти на рутор, достаточно воспользоваться нашим ресурсом. Все новые фильмы, игры, сериалы, книги и музыка за 2013 и 2014 годы через торрент бесплатно. Скачивайте фильмы в хорошем качестве, игры для пк, xbox, playstation без регистрации. У нас вы найдете новые Зарубежные сериалы и Русские сериалы 2013, 2014, 2015 годов. Оставайтесь с нами, качайте любимые фильмы, игры, сериалы, книги и музыку.