img image001 image001 image001 image001 image001 image001 image001 image001 image001 image001 image001 image001 image001 image001 image001

Planets Sun Sun Sun
Статистика раздачи
Автор: Nickolas3434 | Размер: 2.69 ГБ | Добавлен: 16 мар 2016
Раздают: 883    Качают: 31
Скачать торрент
Скачать торрент
Описание торрента

СообщениеДобавлено: 16 мар 2016 



Информация о фильме
Название: Хороший динозавр
Оригинальное название: The Good Dinosaur
Год выхода: 2015
Жанр: мультфильм, фэнтези, комедия, приключения, семейный
Режиссер: Питер Сон
В ролях: Джеффри Райт, Фрэнсис МакДорманд, Малиа Нипай-Падилья, Райан Типл, Джек МакГроу, Маркус Скрибнер, Рэймонд Очоа, Джек Брайт, Питер Сон, Стив Зан, Мэнди Фройнд, Стивен Клэй Хантер, А.Дж. Бакли, Анна Пакуин, Сэм Эллиотт, Дэвид Боат, Кэрри Пафф, Кэлам Грант, Джон Ратценбергер
О фильме:
Представьте, что астероид, некогда навсегда изменивший жизнь на Земле, пролетел мимо нашей планеты и гигантские динозавры существуют по сей день — они далеко обогнали в развитии первобытных людей и создали собственную цивилизацию. Именно там возникла история невероятной дружбы юного бронтозавра Арло и маленького мальчика по имени Дружок. Этим на первый взгляд непохожим героям предстоит вместе совершить опасное путешествие в далекие и таинственные края, научиться бороться со своими страхами и понять, что они не так уж и отличаются друг от друга.

Страна: США
Студия: Walt Disney Pictures, Pixar Animation Studios
Продолжительность: 01:33:38
Перевод: Профессиональный (полное дублирование) [iTunes]
Файл
Кодек: x264
Качество: BDRip 720p
Видео: 1280х536 (2.40:1), 23,976 fps, AVC (H.264), [email protected], ~3100 Kbps avg, 0.188 bit/pixel
Аудио #1: 48 kHz, AC3 Dolby Digital, 3/2 (L,C,R,l,r) + LFE ch, ~384.00 kbps avg | RUS
Аудио #2: 48 kHz, AC3 Dolby Digital, 3/2 (L,C,R,l,r) + LFE ch, ~640.00 kbps avg | ENG
General
Unique ID : 213695430770366163025223887809639357994 (0xA0C43E2F587E99F5AB82B82A69BC1E2A)
Complete name : J:СборкаХороший динозавр. - The.Good.Dinosaur.2015.720p.BDRip.x264.AC3.(1).mkv
Format : Matroska
Format version : Version 4 / Version 2
File size : 2.69 GiB
Duration : 1h 33mn
Overall bit rate : 4 118 Kbps
Encoded date : UTC 2016-03-15 15:50:12
Writing application : mkvmerge v7.3.0 ('Nouages') 32bit built on Oct 22 2014 18:44:01
Writing library : libebml v1.3.0 + libmatroska v1.4.1
DURATION : 01:33:37.728000000
NUMBER_OF_FRAMES : 175554
NUMBER_OF_BYTES : 269650944
_STATISTICS_WRITING_APP : mkvmerge v7.3.0 ('Nouages') 32bit built on Oct 22 2014 18:44:01
_STATISTICS_WRITING_DATE_UTC : 2016-03-15 15:50:12
_STATISTICS_TAGS : BPS DURATION NUMBER_OF_FRAMES NUMBER_OF_BYTES
Video #1
ID : 1
Format : AVC
Format/Info : Advanced Video Codec
Format profile : High@L4.1
Format settings, CABAC : Yes
Format settings, ReFrames : 12 frames
Codec ID : V_MPEG4/ISO/AVC
Duration : 1h 33mn
Bit rate : 3 100 Kbps
Width : 1 280 pixels
Height : 536 pixels
Display aspect ratio : 2.40:1
Frame rate mode : Constant
Frame rate : 23.976 fps
Color space : YUV
Chroma subsampling : 4:2:0
Bit depth : 8 bits
Scan type : Progressive
Bits/(Pixel*Frame) : 0.188
Stream size : 1.97 GiB (73%)
Writing library : x264 core 148 r2665kMod a01e339
Encoding settings : cabac=1 / ref=12 / deblock=1:-3:-3 / analyse=0x3:0x133 / me=umh / subme=10 / psy=1 / fade_compensate=0.00 / psy_rd=1.00:0.00 / mixed_ref=1 / me_range=64 / chroma_me=1 / trellis=2 / 8x8dct=1 / cqm=0 / deadzone=21,11 / fast_pskip=0 / chroma_qp_offset=-2 / threads=12 / lookahead_threads=3 / sliced_threads=0 / nr=0 / decimate=1 / interlaced=0 / bluray_compat=0 / constrained_intra=0 / fgo=0 / bframes=11 / b_pyramid=2 / b_adapt=2 / b_bias=0 / direct=3 / weightb=1 / open_gop=0 / weightp=2 / keyint=240 / keyint_min=23 / scenecut=40 / intra_refresh=0 / rc_lookahead=240 / rc=2pass / mbtree=1 / bitrate=3100 / ratetol=1.0 / qcomp=0.60 / qpmin=0 / qpmax=69 / qpstep=4 / cplxblur=20.0 / qblur=0.5 / vbv_maxrate=40000 / vbv_bufsize=30000 / nal_hrd=none / filler=0 / ip_ratio=1.40 / aq=2:1.00
Default : Yes
Forced : No
Color primaries : BT.709
Transfer characteristics : BT.709
Matrix coefficients : BT.709
Audio #2
ID : 2
Format : AC-3
Format/Info : Audio Coding 3
Mode extension : CM (complete main)
Format settings, Endianness : Big
Codec ID : A_AC3
Duration : 1h 33mn
Bit rate mode : Constant
Bit rate : 384 Kbps
Channel(s) : 6 channels
Channel positions : Front: L C R, Side: L R, LFE
Sampling rate : 48.0 KHz
Bit depth : 16 bits
Compression mode : Lossy
Delay relative to video : 800ms
Stream size : 257 MiB (9%)
Title : RUS [iTunes]
Default : No
Forced : No
Audio #3
ID : 3
Format : AC-3
Format/Info : Audio Coding 3
Mode extension : CM (complete main)
Format settings, Endianness : Big
Codec ID : A_AC3
Duration : 1h 33mn
Bit rate mode : Constant
Bit rate : 640 Kbps
Channel(s) : 6 channels
Channel positions : Front: L C R, Side: L R, LFE
Sampling rate : 48.0 KHz
Bit depth : 16 bits
Compression mode : Lossy
Stream size : 429 MiB (16%)
Title : English
Language : English
Default : Yes
Forced : No




   Похожие торренты   Торрент   Размер 
В этой теме нет новых непрочитанных сообщений. Хороший динозавр / The Good Dinosaur (2015) BDRip 720p | iTunes

782 | 272

5.53 ГБ

В этой теме нет новых непрочитанных сообщений. Хороший динозавр / The Good Dinosaur (2015) BDRip 1080p | iTunes

668 | 157

8.18 ГБ

В этой теме нет новых непрочитанных сообщений. Хороший динозавр / The Good Dinosaur (2015) BDRip от Twi7ter | iTunes

2073 | 178

1.42 ГБ

В этой теме нет новых непрочитанных сообщений. Хороший динозавр / The Good Dinosaur (2015) Blu-ray 1080p | iTunes

49 | 22

34.13 ГБ

В этой теме нет новых непрочитанных сообщений. Хороший динозавр / The Good Dinosaur (2015) BDRemux | 3D-Video | iTunes

35 | 10

25.08 ГБ

В этой теме нет новых непрочитанных сообщений. Хороший динозавр / The Good Dinosaur (2015) BDRip 720p | Лицензия

1237 | 81

5.63 ГБ

В этой теме нет новых непрочитанных сообщений. Хороший динозавр / The Good Dinosaur (2015) BDRip 720p от Scarabey | Line

1638 | 148

5.28 ГБ




Вы не можете начинать темы
Вы не можете отвечать на сообщения
Вы не можете редактировать свои сообщения
Вы не можете удалять свои сообщения
Вы не можете добавлять вложения

Перейти:  
Для Мосгорсуда, Роскомнадзора и рекламодателей: mosgorsud-torrent[собачка]yandex.ru
 Вход
ppkBB3cker v.2 © 2008-2014 @ PPK
[ Time : 0.021s | 16 Queries | GZIP : Off ]

Торрент трекер RUTOR.IN, Не можете зайти на rutor.org? Какой новый адрес рутор? Какое зеркало рутор? Не работает rutor.org и зеркала? Тогда наш торрент специально для вас. Rutor.in неофициальное зеркало rutor. В случае если у Вас заблокирован rutor или вдруг Вы не можете на него зайти, то Вы без труда сможете скачать бесплатно и без рекламы последние новинки кино, игр, сериалов и прочего у нас, на Rutor.in. Не нужно использовать прокси, чтобы зайти на рутор, достаточно воспользоваться нашим ресурсом. Все новые фильмы, игры, сериалы, книги и музыка за 2013 и 2014 годы через торрент бесплатно. Скачивайте фильмы в хорошем качестве, игры для пк, xbox, playstation без регистрации. У нас вы найдете новые Зарубежные сериалы и Русские сериалы 2013, 2014, 2015 годов. Оставайтесь с нами, качайте любимые фильмы, игры, сериалы, книги и музыку.
cron