img image001 image001 image001 image001 image001 image001 image001 image001 image001 image001 image001 image001 image001 image001 image001

Planets Sun Sun Sun
Статистика раздачи
Автор: Nickolas3434 | Размер: 10.1 ГБ | Добавлен: 20 мар 2016
Раздают: 762    Качают: 44
Скачать торрент
Скачать торрент
Описание торрента

СообщениеДобавлено: 20 мар 2016 


Информация о фильме
Название: Хороший динозавр
Оригинальное название: The Good Dinosaur
Год выхода: 2015
Жанр: мультфильм, фэнтези, комедия, приключения, семейный,
Режиссер: Питер Сон
В ролях: Джеффри Райт, Фрэнсис МакДорманд, Малиа Нипай-Падилья, Райан Типл, Джек МакГроу, Маркус Скрибнер, Рэймонд Очоа, Джек Брайт, Питер Сон, Стив Зан
О фильме:
По сюжету динозавры не вымерли, а эволюционировали в разумных существ и живут и здравствуют на Земле. А вот люди остались на довольно примитивной стадии развития. Фильм расскажет историю дружбы динозавра и маленького мальчика.

Страна: США
Студия: Pixar Animation Studios, Walt Disney Pictures
Продолжительность: 01:33:50
Перевод: Профессиональный (дублированный) Blu-ray EUR
Релиз:
Файл
Формат: Matroska
Видео: 1920x804 at 23.976 fps, [email protected], ~12600 kbps avg
Aудио#1: Russian: 48 kHz, AC3, 3/2 (L,C,R,l,r) + LFE ch, ~640.00 kbps avg |Дубляж, Blu-ray EUR|
Aудио#2: English: 48 kHz, DTS, 3/2 (L,C,R,l,r) + LFE ch, ~1536.00 kbps avg
Aудио#3: English: 48 kHz, AC3, 2/0 (L,R) ch, ~320.00 kbps avg |Commentary from director Peter Sohn, story supervisor Kelsey Mann, supervising animator Mike Venturini, director of photography/lighting Sharon Calahan, and supervising technical director Sanjay Bakshi|
Субтитры: Russian, Russian (Commentary), English (SDH), English (Commentary)
***Сохранены оригинальные главы как на Blu-ray.
***Локализованный русский видеоряд.
***Видеоряд - HDCLUB.
General
Unique ID : 240801323370062480986884902569579035668 (0xB528A5DEE9FBFB41A2C7729409BEBC14)
Complete name : The.Good.Dinosaur.2015.1080p.BluRay.Rus.2xEng.HDCLUB.mkv
Format : Matroska
Format version : Version 2
File size : 10.1 GiB
Duration : 1h 33mn
Overall bit rate : 15.4 Mbps
Movie name : The Good Dinosaur (2015) - Release of HDCLUB
Encoded date : UTC 2016-03-19 12:19:08
Writing application : mkvmerge v3.4.0 ('Rapunzel') built on May 15 2010 09:38:20
Writing library : libebml v0.8.0 + libmatroska v0.9.0
Video
ID : 1
Format : AVC
Format/Info : Advanced Video Codec
Format profile : High@L4.1
Format settings, CABAC : Yes
Format settings, ReFrames : 5 frames
Codec ID : V_MPEG4/ISO/AVC
Duration : 1h 33mn
Bit rate : 12.6 Mbps
Width : 1 920 pixels
Height : 804 pixels
Display aspect ratio : 2.40:1
Frame rate mode : Constant
Frame rate : 23.976 fps
Color space : YUV
Chroma subsampling : 4:2:0
Bit depth : 8 bits
Scan type : Progressive
Bits/(Pixel*Frame) : 0.341
Stream size : 8.28 GiB (82%)
Title : The Good Dinosaur (2015) - Release of HDCLUB
Writing library : x264 core 142 r2431+42 c69a006 tMod [8-bit@all X86_64]
Encoding settings : cabac=1 / ref=5 / deblock=1:-3:-3 / analyse=0x3:0x133 / me=tesa / subme=11 / psy=1 / fade_compensate=0.00 / psy_rd=1.00:0.00 / mixed_ref=1 / me_range=32 / chroma_me=1 / trellis=2 / 8x8dct=1 / cqm=0 / deadzone=21,11 / fast_pskip=0 / chroma_qp_offset=-2 / threads=24 / lookahead_threads=4 / sliced_threads=0 / nr=0 / decimate=1 / interlaced=0 / bluray_compat=0 / constrained_intra=0 / fgo=0 / bframes=9 / b_pyramid=2 / b_adapt=2 / b_bias=0 / direct=1 / weightb=1 / open_gop=0 / weightp=2 / keyint=240 / keyint_min=23 / scenecut=40 / intra_refresh=0 / rc_lookahead=60 / rc=crf / mbtree=0 / crf=15.9000 / qcomp=0.60 / qpmin=0:0:0 / qpmax=69:69:69 / qpstep=4 / vbv_maxrate=50000 / vbv_bufsize=62500 / crf_max=0.0 / nal_hrd=none / filler=0 / ip_ratio=1.35 / pb_ratio=1.25 / aq=1:0.80 / aq-sensitivity=10.00 / aq-factor=1.00:1.00:1.00 / aq2=0 / aq3=0
Language : English
Default : Yes
Forced : No
Audio #1
ID : 2
Format : AC-3
Format/Info : Audio Coding 3
Mode extension : CM (complete main)
Format settings, Endianness : Big
Codec ID : A_AC3
Duration : 1h 33mn
Bit rate mode : Constant
Bit rate : 640 Kbps
Channel(s) : 6 channels
Channel positions : Front: L C R, Side: L R, LFE
Sampling rate : 48.0 KHz
Compression mode : Lossy
Stream size : 430 MiB (4%)
Title : AC3 5.1 @ 640 kbps - DUB, Blu-ray EUR
Language : Russian
Default : Yes
Forced : No
Audio #2
ID : 3
Format : DTS
Format/Info : Digital Theater Systems
Mode : 16
Format settings, Endianness : Big
Codec ID : A_DTS
Duration : 1h 33mn
Bit rate mode : Constant
Bit rate : 1 509 Kbps
Channel(s) : 6 channels
Channel positions : Front: L C R, Side: L R, LFE
Sampling rate : 48.0 KHz
Bit depth : 24 bits
Compression mode : Lossy
Stream size : 1 013 MiB (10%)
Title : DTS 5.1 @ 1536 kbps
Language : English
Default : No
Forced : No
Audio #3
ID : 4
Format : AC-3
Format/Info : Audio Coding 3
Mode extension : CM (complete main)
Format settings, Endianness : Big
Codec ID : A_AC3
Duration : 1h 33mn
Bit rate mode : Constant
Bit rate : 320 Kbps
Channel(s) : 2 channels
Channel positions : Front: L R
Sampling rate : 48.0 KHz
Compression mode : Lossy
Stream size : 215 MiB (2%)
Title : AC3 2.0 @ 320 kbps - Commentary from director Peter Sohn, story supervisor Kelsey Mann, supervising animator Mike Venturini, director of photography/lighting Sharon Calahan, and supervising technical director Sanjay Bakshi
Language : English
Default : No
Forced : No
Text #1
ID : 5
Format : UTF-8
Codec ID : S_TEXT/UTF8
Codec ID/Info : UTF-8 Plain Text
Title : Blu-ray EUR
Language : Russian
Default : No
Forced : No
Text #2
ID : 6
Format : UTF-8
Codec ID : S_TEXT/UTF8
Codec ID/Info : UTF-8 Plain Text
Title : SDH, Blu-ray EUR
Language : English
Default : No
Forced : No
Text #3
ID : 7
Format : UTF-8
Codec ID : S_TEXT/UTF8
Codec ID/Info : UTF-8 Plain Text
Title : Commentary, Blu-ray EUR
Language : Russian
Default : No
Forced : No
Text #4
ID : 8
Format : UTF-8
Codec ID : S_TEXT/UTF8
Codec ID/Info : UTF-8 Plain Text
Title : Commentary, Blu-ray EUR
Language : English
Default : No
Forced : No
Menu
00:00:00.000 : en:00:00:00.000
00:03:37.968 : en:00:03:37.968
00:06:16.459 : en:00:06:16.459
00:08:14.160 : en:00:08:14.160
00:12:12.607 : en:00:12:12.607
00:14:33.915 : en:00:14:33.915
00:17:42.353 : en:00:17:42.353
00:21:10.644 : en:00:21:10.644
00:22:58.168 : en:00:22:58.168
00:26:41.058 : en:00:26:41.058
00:29:02.616 : en:00:29:02.616
00:33:10.363 : en:00:33:10.363
00:35:28.668 : en:00:35:28.668
00:38:14.459 : en:00:38:14.459
00:41:08.841 : en:00:41:08.841
00:45:42.948 : en:00:45:42.948
00:47:47.948 : en:00:47:47.948
00:51:48.272 : en:00:51:48.272
00:55:46.969 : en:00:55:46.969
01:00:22.953 : en:01:00:22.953
01:03:59.002 : en:01:03:59.002
01:05:27.215 : en:01:05:27.215
01:07:11.778 : en:01:07:11.778
01:11:06.429 : en:01:11:06.429
01:13:43.377 : en:01:13:43.377
01:16:01.432 : en:01:16:01.432
01:19:08.494 : en:01:19:08.494
01:23:56.865 : en:01:23:56.865
01:26:01.114 : en:01:26:01.114



   Похожие торренты   Торрент   Размер 
В этой теме нет новых непрочитанных сообщений. Хороший динозавр / The Good Dinosaur (2015) BDRip 1080p от ExKinoRay | Лицензия

724 | 52

7.37 ГБ

В этой теме нет новых непрочитанных сообщений. Хороший динозавр / The Good Dinosaur (2015) BDRip 1080p HEVC М12p | Лицензия

250 | 25

4.2 ГБ

В этой теме нет новых непрочитанных сообщений. Хороший динозавр / The Good Dinosaur (2015) BDRip 1080p от New-Team & qqss44 | Локализованная версия | Лицензия

76 | 20

5.75 ГБ

В этой теме нет новых непрочитанных сообщений. Хороший динозавр / The Good Dinosaur (2015) BDRemux 1080p | Локализованная версия | D, A | Лицензия

46 | 23

22.81 ГБ

В этой теме нет новых непрочитанных сообщений. Хороший динозавр / The Good Dinosaur (2015) BDRip от Twi7ter | Лицензия

1738 | 223

1.46 ГБ

В этой теме нет новых непрочитанных сообщений. Хороший динозавр / The Good Dinosaur (2015) BDRip-AVC от ExKinoRay | Лицензия

816 | 30

3.11 ГБ

В этой теме нет новых непрочитанных сообщений. Хороший динозавр / The Good Dinosaur (2015) BDRip от HQCLUB | D | Лицензия

1205 | 23

1.45 ГБ




Вы не можете начинать темы
Вы не можете отвечать на сообщения
Вы не можете редактировать свои сообщения
Вы не можете удалять свои сообщения
Вы не можете добавлять вложения

Перейти:  
Для Мосгорсуда, Роскомнадзора и рекламодателей: mosgorsud-torrent[собачка]yandex.ru
 Вход
ppkBB3cker v.2 © 2008-2014 @ PPK
[ Time : 0.023s | 14 Queries | GZIP : Off ]

Торрент трекер RUTOR.IN, Не можете зайти на rutor.org? Какой новый адрес рутор? Какое зеркало рутор? Не работает rutor.org и зеркала? Тогда наш торрент специально для вас. Rutor.in неофициальное зеркало rutor. В случае если у Вас заблокирован rutor или вдруг Вы не можете на него зайти, то Вы без труда сможете скачать бесплатно и без рекламы последние новинки кино, игр, сериалов и прочего у нас, на Rutor.in. Не нужно использовать прокси, чтобы зайти на рутор, достаточно воспользоваться нашим ресурсом. Все новые фильмы, игры, сериалы, книги и музыка за 2013 и 2014 годы через торрент бесплатно. Скачивайте фильмы в хорошем качестве, игры для пк, xbox, playstation без регистрации. У нас вы найдете новые Зарубежные сериалы и Русские сериалы 2013, 2014, 2015 годов. Оставайтесь с нами, качайте любимые фильмы, игры, сериалы, книги и музыку.