img image001 image001 image001 image001 image001 image001 image001 image001 image001 image001 image001 image001 image001 image001 image001

Planets Sun Sun Sun
Статистика раздачи
Автор: Nickolas3434 | Размер: 626.5 МБ | Добавлен: 21 мар 2016
Раздают: 78    Качают: 7
Скачать торрент
Скачать торрент
Описание торрента

СообщениеДобавлено: 21 мар 2016 

Василиса Прекрасная / Vasilisa the Beautiful (1977) HDTVRip [720p] от SDIncorporation | P

Информация о фильме
Русское название: Василиса Прекрасная
Оригинальное название: Василиса Прекрасная
Страна: СССР
Год выпуска: 1977
Жанр: Мультфильм, Короткометражка, Семейный
Перевод: Не требуется
Режиссер: Владимир Пекарь
Работа над релизом: Nod33Eset(retvil)
StreetDespair
О фильме:
Фильм поставлен по одноимённой русской народной сказке и рассказывает о добром царевиче, который прошёл через все испытания, чтобы расколдовать царевну-лягушку.


Продолжительность: 00:18:02
Качество видео: HDTVRip 720p
Видеокодек: AVC
Формат: MKV
Битрейт видео: ~4800 Kbps
Размер кадра: 960x720 pixels
Аудиокодек: AC3
Битрейт аудио: 224 Kbps
Аудио #1: Русский (48 kHz, AC3 Dolby Digital, 2 channels, 224 Kbps) — Оригинал


General
Unique ID : 219416502151573369606957018836699529392 (0xA51214C81F9D2CB5B5F7DB23952D40B0)
Complete name : Vasilisa.the.Beautiful.720p-LQ.1977.Russian.SDIncorporation.mkv
Format : Matroska
Format version : Version 4 / Version 2
File size : 627 MiB
Duration : 18mn 2s
Overall bit rate mode : Variable
Overall bit rate : 4 854 Kbps
Movie name : Vasilisa the Beautiful [720p-LQ] (1977) © SDIncorporation
Encoded date : UTC 2016-03-18 16:21:12
Writing application : mkvmerge v8.9.0 ('Father Daughter') 64bit
Writing library : libebml v1.3.3 + libmatroska v1.4.4
Video
ID : 1
Format : AVC
Format/Info : Advanced Video Codec
Format profile : Main@L3.1
Format settings, CABAC : Yes
Format settings, ReFrames : 3 frames
Codec ID : V_MPEG4/ISO/AVC
Duration : 18mn 2s
Bit rate mode : Variable
Bit rate : 4 628 Kbps
Maximum bit rate : 16.0 Mbps
Width : 960 pixels
Height : 720 pixels
Display aspect ratio : 4:3
Original display aspect rat : 16:9
Frame rate mode : Constant
Frame rate : 25.000 fps
Standard : NTSC
Color space : YUV
Chroma subsampling : 4:2:0
Bit depth : 8 bits
Scan type : Progressive
Bits/(Pixel*Frame) : 0.268
Stream size : 597 MiB (95%)
Title : Video
Language : Russian
Default : Yes
Forced : No
Color range : Limited
Audio
ID : 2
Format : AC-3
Format/Info : Audio Coding 3
Mode extension : CM (complete main)
Format settings, Endianness : Big
Codec ID : A_AC3
Duration : 18mn 2s
Bit rate mode : Constant
Bit rate : 224 Kbps
Channel(s) : 2 channels
Channel positions : Front: L R
Sampling rate : 48.0 KHz
Frame rate : 31.250 fps (1536 spf)
Compression mode : Lossy
Stream size : 28.9 MiB (5%)
Title : Russian
Default : Yes
Forced : No



Время раздачи: С 8:00 до 22:00
Релиз от: ©SDIncorporation



   Похожие торренты   Торрент   Размер 
В этой теме нет новых непрочитанных сообщений. Василиса Прекрасная (1977) DVDRip-AVC от SDIncorporation

49 | 3

293.38 МБ

В этой теме нет новых непрочитанных сообщений. Василиса Прекрасная (1989) PNG от RG Superdetki

37 | 4

185.72 МБ

В этой теме нет новых непрочитанных сообщений. Василиса Прекрасная (1939) DVDRip

39 | 6

1.37 ГБ

В этой теме нет новых непрочитанных сообщений. Василиса Прекрасная (1939) DVDRip от New-Team

192 | 23

1.09 ГБ

В этой теме нет новых непрочитанных сообщений. Василиса Прекрасная (1939) DVDRip-AVC от New-Team

96 | 14

1.09 ГБ

В этой теме нет новых непрочитанных сообщений. Василиса Прекрасная (1939) DVDRip от New-Team

82 | 12

742.76 МБ

В этой теме нет новых непрочитанных сообщений. Василиса (2014) HDTVRip 720p | Расширенная Телеверсия

189 | 42

5.79 ГБ




Вы не можете начинать темы
Вы не можете отвечать на сообщения
Вы не можете редактировать свои сообщения
Вы не можете удалять свои сообщения
Вы не можете добавлять вложения

Перейти:  
Для Мосгорсуда, Роскомнадзора и рекламодателей: mosgorsud-torrent[собачка]yandex.ru
 Вход
ppkBB3cker v.2 © 2008-2014 @ PPK
[ Time : 0.059s | 15 Queries | GZIP : Off ]

Торрент трекер RUTOR.IN, Не можете зайти на rutor.org? Какой новый адрес рутор? Какое зеркало рутор? Не работает rutor.org и зеркала? Тогда наш торрент специально для вас. Rutor.in неофициальное зеркало rutor. В случае если у Вас заблокирован rutor или вдруг Вы не можете на него зайти, то Вы без труда сможете скачать бесплатно и без рекламы последние новинки кино, игр, сериалов и прочего у нас, на Rutor.in. Не нужно использовать прокси, чтобы зайти на рутор, достаточно воспользоваться нашим ресурсом. Все новые фильмы, игры, сериалы, книги и музыка за 2013 и 2014 годы через торрент бесплатно. Скачивайте фильмы в хорошем качестве, игры для пк, xbox, playstation без регистрации. У нас вы найдете новые Зарубежные сериалы и Русские сериалы 2013, 2014, 2015 годов. Оставайтесь с нами, качайте любимые фильмы, игры, сериалы, книги и музыку.
cron