img image001 image001 image001 image001 image001 image001 image001 image001 image001 image001 image001 image001 image001 image001 image001

Planets Sun Sun Sun
Статистика раздачи
Автор: Nickolas3434 | Размер: 41.01 ГБ | Добавлен: 21 мар 2016, 15:57
Раздают: 69    Качают: 13
Скачать торрент
Скачать торрент
Описание торрента

СообщениеДобавлено: 21 мар 2016, 15:57 


Производство: США / Pixar Animation Studios, Walt Disney Pictures
Жанр: мультфильм, фэнтези, комедия, приключения, семейный
Режиссер: Питер Сон
Продюсер: Денис Рим, Мэри Элис Драмм, Джон Лассетер
Персонажи: Джеффри Райт, Фрэнсис МакДорманд, Малиа Нипай-Падилья, Райан Типл, Джек МакГроу, Маркус Скрибнер, Рэймонд Очоа, Джек Брайт, Питер Сон, Стив Зан, Мэнди Фройнд, Стивен Клэй Хантер, А.Дж. Бакли, Анна Пакуин, Сэм Эллиотт, Дэвид Боат, Кэрри Пафф, Кэлам Грант, Джон Ратценбергер
Описание:
По сюжету динозавры не вымерли, а эволюционировали в разумных существ и живут и здравствуют на Земле. А вот люди остались на довольно примитивной стадии развития. Фильм расскажет историю дружбы динозавра и маленького мальчика.

Рейтинг MPAA: PG (рекомендуется присутствие родителей)
Дата мировой премьеры: 10 ноября 2015
Дата российской премьеры: 26 ноября 2015, «WDSSPR» 3D
Релиз на Blu-Ray/DVD: 22 марта 2016, «Уолт Дисней Компани СНГ»
Релиз от: hdclub
Продолжительность: 1:33:38
Качество: Blu-ray
Перевод: Дублированный (Лицензия BD EUR)
Вид субтитров: Вшитые, отключаемые
Язык субтитров: Русский, Английский, Португальский, Испанский
Видео: AVC/H.264, 1920x1080p, (16:9), 24.1 Mbps, 23,976 fps
Аудио: AC3, 6 ch, 640 kbps - Русский
Аудио: DTS, 6 ch, 1509 kbps - Испанский
Аудио: DTS, 6 ch, 1509 kbps - Португальский
Аудио: AC3, 2 ch, 320 kbps - Английский
Аудио: AC3, 2 ch, 320 kbps - Английский
Аудио: DTS-HD MA, 6 ch, 2046 kbps / Core 1509 kbps - Английский
Аудио: DTS-HD MA, 8 ch, 3344 kbps / Core 1509 kbps - Английский
Commentary
Dino Bites
Following the T-Rex Trail
Every Part of The Dinosaur
The Filmmakers' Journey
Recyclosaurus
True Lies About Dinosaurs
Deleted Scenes
Hide and Seek
THEATRICAL SHORT – Sanjay’s Super Team

DISC INFO:
Disc Title: THE_GOOD_DINOSAUR_HDCLUB
Disc Size: 44 036 086 161 bytes
Protection: AACS
BD-Java: Yes
BDInfo: 0.5.8
PLAYLIST REPORT:
Name: 00803.MPLS
Length: 1:33:50.458 (h:m:s.ms)
Size: 25 658 370 048 bytes
Total Bitrate: 36,46 Mbps
VIDEO:
Codec Bitrate Deion
----- ------- -----------
MPEG-4 AVC Video 24044 kbps 1080p / 23,976 fps / 16:9 / High Profile 4.1
AUDIO:
Codec Language Bitrate Deion
----- -------- ------- -----------
DTS-HD Master Audio English 3344 kbps 7.1 / 48 kHz / 3344 kbps / 24-bit (DTS Core: 5.1 / 48 kHz / 1509 kbps / 24-bit)
DTS-HD High-Res Audio English 2046 kbps 5.1 / 48 kHz / 2046 kbps / 24-bit (DTS Core: 5.1 / 48 kHz / 1509 kbps / 24-bit)
DTS Audio Portuguese 1509 kbps 5.1 / 48 kHz / 1509 kbps / 24-bit
DTS Audio Spanish 1509 kbps 5.1 / 48 kHz / 1509 kbps / 24-bit
Dolby Digital Audio Russian 640 kbps 5.1 / 48 kHz / 640 kbps
Dolby Digital Audio English 320 kbps 2.0 / 48 kHz / 320 kbps / Dolby Surround
Dolby Digital Audio English 320 kbps 2.0 / 48 kHz / 320 kbps / DN -4dB
SUBTITLES:
Codec Language Bitrate Deion
----- -------- ------- -----------
Presentation Graphics English 20,599 kbps
Presentation Graphics English 83,214 kbps
Presentation Graphics Portuguese 13,171 kbps
Presentation Graphics Russian 12,490 kbps
Presentation Graphics Russian 71,306 kbps
Presentation Graphics Spanish 12,402 kbps
Presentation Graphics Spanish 74,037 kbps
FILES:
Name Time In Length Size Total Bitrate
---- ------- ------ ---- -------------
00301.M2TS 0:00:00.000 0:00:45.295 211 126 272 37 289
00331.M2TS 0:00:45.295 0:00:22.355 100 478 976 35 957
00303.M2TS 0:01:07.650 0:00:32.741 149 729 280 36 585
00332.M2TS 0:01:40.391 0:00:31.114 141 901 824 36 485
00305.M2TS 0:02:11.506 1:23:46.271 23 026 569 216 36 650
00333.M2TS 1:25:57.777 0:07:28.364 1 917 880 320 34 220
00307.M2TS 1:33:26.142 0:00:24.315 110 684 160 36 415

Скриншоты:

Время раздачи: 24/7



   Похожие торренты   Торрент   Размер 
В этой теме нет новых непрочитанных сообщений. Хороший динозавр / The Good Dinosaur (2015) HDRip | КПК | Лицензия

206 | 2

423.93 МБ

В этой теме нет новых непрочитанных сообщений. Хороший динозавр / The Good Dinosaur (2015) BDRip-AVC от ExKinoRay | Лицензия

899 | 33

3.11 ГБ

В этой теме нет новых непрочитанных сообщений. Хороший динозавр / The Good Dinosaur (2015) DVD9 от New-Team | Лицензия

46 | 10

6.43 ГБ

В этой теме нет новых непрочитанных сообщений. Хороший динозавр / The Good Dinosaur (2015) BDRip от Twi7ter | Лицензия

1738 | 223

1.46 ГБ

В этой теме нет новых непрочитанных сообщений. Хороший динозавр / The Good Dinosaur (2015) BDRip 1080p | Лицензия

764 | 41

10.1 ГБ

В этой теме нет новых непрочитанных сообщений. Хороший динозавр / The Good Dinosaur (2015) BDRip от HQCLUB | D | Лицензия

1226 | 24

1.45 ГБ

В этой теме нет новых непрочитанных сообщений. Хороший динозавр / The Good Dinosaur (2015) BDRip-AVC от HELLYWOOD | Лицензия

325 | 20

1.46 ГБ




Вы не можете начинать темы
Вы не можете отвечать на сообщения
Вы не можете редактировать свои сообщения
Вы не можете удалять свои сообщения
Вы не можете добавлять вложения

Перейти:  
Для Мосгорсуда, Роскомнадзора и рекламодателей: mosgorsud-torrent[собачка]yandex.ru
Настройки
ppkBB3cker v.2 © 2008-2014 @ PPK
[ Time : 0.018s | 15 Queries | GZIP : Off ]
CGP [Extreme] output time : 0.00232s | 0 Queries | GZIP : Off

Торрент трекер RUTOR.IN, Не можете зайти на rutor.org? Какой новый адрес рутор? Какое зеркало рутор? Не работает rutor.org и зеркала? Тогда наш торрент специально для вас. Rutor.in неофициальное зеркало rutor. В случае если у Вас заблокирован rutor или вдруг Вы не можете на него зайти, то Вы без труда сможете скачать бесплатно и без рекламы последние новинки кино, игр, сериалов и прочего у нас, на Rutor.in. Не нужно использовать прокси, чтобы зайти на рутор, достаточно воспользоваться нашим ресурсом. Все новые фильмы, игры, сериалы, книги и музыка за 2013 и 2014 годы через торрент бесплатно. Скачивайте фильмы в хорошем качестве, игры для пк, xbox, playstation без регистрации. У нас вы найдете новые Зарубежные сериалы и Русские сериалы 2013, 2014, 2015 годов. Оставайтесь с нами, качайте любимые фильмы, игры, сериалы, книги и музыку.