img image001 image001 image001 image001 image001 image001 image001 image001 image001 image001 image001 image001 image001 image001 image001

Planets Sun Sun Sun
Статистика раздачи
Автор: Nickolas3434 | Размер: 679.95 МБ | Добавлен: 21 мар 2016
Раздают: 104    Качают: 13
Скачать торрент
Скачать торрент
Описание торрента

СообщениеДобавлено: 21 мар 2016 

Информация о фильме
Название: Малышарики
Год выпуска: 2015-2016
Страна: Россия, Студия анимации «Петербург»
Жанр: Обучающий, мультфильм, рисованный, детский
Продолжительность: 19 х ~ 00:05:00
Перевод: не требуется
субтитры: отсутствуют
Режиссёр: Марина Мошкова
Озвучивали: Анна Геллер, Марианна Мокшина
Описание: Новый мультсериал «Малышарики» представили маленьким зрителям российские мультипликаторы. Он рассчитан на детскую аудиторию, возрастом от 0 до 4 лет. Многие уже знакомы с персонажами увлекательного и смешного мультика «Смешарики». И, наверное, всем интересно, какими были эти герои в детстве? Дети познакомятся с Нюшей и Барашем, Крошем, Ежиком, Лосяшем, и другими забавными персонажами.
Мир Малышариков – это простой и понятный мир увлечений, радости и заботы. В нем живут Малышарики, каждый из которых уже имеет свой особенный характер. Они всегда готовы придумать новую игру или поделиться своими знаниями и умениями. Малышарики говорят с малышами на одном удивительном – детском языке, поэтому всегда близки и понятны.
01. Качели
02. Прогулка
03. Фломастеры
04. Ракета
05. Следы
06. Башня
07. Красная шапочка
08. Солнышко
09. Ёлка
10. Попрыгушки
11. Ручейки
12. Машинка
13. Прятки
14. Домики
15. Ведёрко
16. На площадке
17. Самокат
18. Футбол
19. Спокойной ночи, Звёздочка

Доп. информация:
Семпл
Файл
Формат: AVI
Качество: WEBRip
Видео: 704x400 (1.76:1), 25 fps, XviD build 50 ~799 kbps avg, 0.11 bit/pixel
Аудио: 48 kHz, AC3 Dolby Digital, 2/0 (L,R) ch, ~192.00 kbps avg
07. Красная шапочка. XviD-merci-.avi
Format : AVI
Format/Info : Audio Video Interleave
File size : 36.2 MiB
Duration : 5mn 3s
Overall bit rate : 1 002 Kbps
Writing application : VirtualDubMod 1.5.10.3 | www.virtualdub-fr.org || (build 2550/release)
Writing library : VirtualDubMod build 2550/release
Video
ID : 0
Format : MPEG-4 Visual
Format profile : Advanced Simple@L5
Format settings, BVOP : 1
Format settings, QPel : No
Format settings, GMC : No warppoints
Format settings, Matrix : Default (H.263)
Codec ID : XVID
Codec ID/Hint : XviD
Duration : 5mn 3s
Bit rate : 800 Kbps
Width : 704 pixels
Height : 400 pixels
Display aspect ratio : 16:9
Frame rate : 25.000 fps
Color space : YUV
Chroma subsampling : 4:2:0
Bit depth : 8 bits
Scan type : Progressive
Compression mode : Lossy
Bits/(Pixel*Frame) : 0.114
Stream size : 28.9 MiB (80%)
Writing library : XviD 1.2.1 (UTC 2008-12-04)
Audio
ID : 1
Format : AC-3
Format/Info : Audio Coding 3
Mode extension : CM (complete main)
Format settings, Endianness : Big
Codec ID : 2000
Duration : 5mn 3s
Bit rate mode : Constant
Bit rate : 192 Kbps
Channel(s) : 2 channels
Channel positions : Front: L R
Sampling rate : 48.0 KHz
Frame rate : 31.250 fps (1536 spf)
Compression mode : Lossy
Stream size : 6.94 MiB (19%)
Alignment : Split accross interleaves
Interleave, duration : 40 ms (1.00 video frame)
Interleave, preload duratio : 500 ms


Релиз от: -merci-



   Похожие торренты   Торрент   Размер 
В этой теме нет новых непрочитанных сообщений. Малышарики [01-18 из ?] (2015-2016) WEBRip от -merci-

58 | 2

643.61 МБ

В этой теме нет новых непрочитанных сообщений. Малышарики [01-20 из ?] (2015-2016) WEBRip от -merci-

32 | 4

752.08 МБ

В этой теме нет новых непрочитанных сообщений. Малышарики [01-16 из ?] (2015-2016) WEBRip от -merci-

300 | 14

571.4 МБ

В этой теме нет новых непрочитанных сообщений. Малышарики [01-20 из ?] (2015-2016) WEBRip от -merci-

24 | 4

788.46 МБ

В этой теме нет новых непрочитанных сообщений. Малышарики [01-20 из ?] (2015-2016) WEBRip от -merci-

100 | 7

824.54 МБ

В этой теме нет новых непрочитанных сообщений. Малышарики [01-17 из ?] (2015-2016) WEBRip от -merci-

170 | 61

607.46 МБ

В этой теме нет новых непрочитанных сообщений. Малышарики [01-20 из ?] (2015-2016) WEBRip от -merci-

161 | 28

716.03 МБ




Вы не можете начинать темы
Вы не можете отвечать на сообщения
Вы не можете редактировать свои сообщения
Вы не можете удалять свои сообщения
Вы не можете добавлять вложения

Перейти:  
Для Мосгорсуда, Роскомнадзора и рекламодателей: mosgorsud-torrent[собачка]yandex.ru
 Вход
ppkBB3cker v.2 © 2008-2014 @ PPK
[ Time : 0.043s | 17 Queries | GZIP : Off ]

Торрент трекер RUTOR.IN, Не можете зайти на rutor.org? Какой новый адрес рутор? Какое зеркало рутор? Не работает rutor.org и зеркала? Тогда наш торрент специально для вас. Rutor.in неофициальное зеркало rutor. В случае если у Вас заблокирован rutor или вдруг Вы не можете на него зайти, то Вы без труда сможете скачать бесплатно и без рекламы последние новинки кино, игр, сериалов и прочего у нас, на Rutor.in. Не нужно использовать прокси, чтобы зайти на рутор, достаточно воспользоваться нашим ресурсом. Все новые фильмы, игры, сериалы, книги и музыка за 2013 и 2014 годы через торрент бесплатно. Скачивайте фильмы в хорошем качестве, игры для пк, xbox, playstation без регистрации. У нас вы найдете новые Зарубежные сериалы и Русские сериалы 2013, 2014, 2015 годов. Оставайтесь с нами, качайте любимые фильмы, игры, сериалы, книги и музыку.