img image001 image001 image001 image001 image001 image001 image001 image001 image001 image001 image001 image001 image001 image001 image001

Planets Sun Sun Sun
Статистика раздачи
Автор: Nickolas3434 | Размер: 2.3 ГБ | Добавлен: 21 мар 2016
Раздают: 72    Качают: 23
Скачать торрент
Скачать торрент
Описание торрента

СообщениеДобавлено: 21 мар 2016 

Информация о фильме
Название: Майлз с другой планеты (Майлз с планеты будущего)
Оригинальное название: Miles from Tomorrowland
Год выхода: 2015
Страна: США, Disney
Жанр: мультфильм, фантастика, приключения, семейный
Продолжительность: 18 x ~ 00:23:06
Перевод: Профессиональный (дублированный)
Режиссеры: Пол Димайер, Сью Перротто, Джон Энг, ...
Роли озвучивали: Оливия Манн, Каллен МакКарти, Фиона Бишоп, Ди Брэдли Бейкер, Том Кенни, Грэй Гриффин, Дидрих Бадер, Дэнни Джейкобс, Сэм Лаваньино, Этан Вакер, ...
Роли дублировали: Елена Шульман, Владимир Войтюк, Василиса Эльдарова, Алексей Черных, Анна Киселева, ...
О фильме:
Знакомьтесь с юным любителем приключений Майлзом Каллисто и его необычной семьей! Мама парнишки — пилот космического корабля, папа — инженер-механик, а старшая сестра — настоящая всезнайка в области различных технологий. Вместе с ними и домашним питомцем, роботом-страусом Мёрком, Майлз путешествует по просторам вселенной и исследует неизведанные миры. В эпизодах познавательного мультсериала юных телезрителей ждут удивительные открытия!
01. Сбежавший шаттл + Катание в водовороте
02. Путешествие на Ледяную планету + Атака Фликораксов
03. Океан в движении + Обмен Исследователей
04. Сыграем + Как я спас свои летние каникулы
05. Поймай биту! + Супер-Мёрк
06. Кто украл Стеллосферу + Игра в мяч
07. Уменьшенные + Катание с кварконами
08. С днём капитана + Планета растени
09. В зону Златовласки + Заминка в плане
10. Полиция начеку + Захватчик корабля
11. Мама-Мёрк + Космическая гонка
12. Приключения с домашними роботами + Погоня за бластбордом
13. Отключенные + Замусоренные
14. Приключения на Нептуне + Глаза в глаза
15. Луна с привидениями + Страшная ночь в Темной Туманности
16. Замороженная еда + Пока, мультилифт
17. День Юрия + Я, Стелла
18. Лунный Новый Год + Дневники ховербайкера



Доп. информация:
Официальный сайт / Семпл


Файл
Формат: MP4
Качество: WEBRip-AVC 480p
Видео: AVC, [email protected], 854x480 (16:9), ~ 884 Kbps, 25.000 fps
Звук: 44.1 KHz, AAC-LC 2.0, 126 Kbps
Субтитры: нет
s1e14. Приключения на Нептуне + Глаза в Глаза. SD-merci-.mp4
Format : MPEG-4
Format profile : Base Media
Codec ID : isom (isom/iso2/avc1/mp41)
File size : 168 MiB
Duration : 23mn 6s
Overall bit rate : 1 016 Kbps
Writing application : Lavf55.19.102
Video
ID : 1
Format : AVC
Format/Info : Advanced Video Codec
Format profile : Main@L3
Format settings, CABAC : Yes
Format settings, ReFrames : 3 frames
Codec ID : avc1
Codec ID/Info : Advanced Video Coding
Duration : 23mn 6s
Bit rate : 884 Kbps
Width : 854 pixels
Height : 480 pixels
Display aspect ratio : 16:9
Frame rate mode : Constant
Frame rate : 25.000 fps
Color space : YUV
Chroma subsampling : 4:2:0
Bit depth : 8 bits
Scan type : Progressive
Bits/(Pixel*Frame) : 0.086
Stream size : 146 MiB (87%)
Audio
ID : 2
Format : AAC
Format/Info : Advanced Audio Codec
Format profile : LC
Codec ID : 40
Duration : 23mn 6s
Bit rate mode : Constant
Bit rate : 126 Kbps
Channel(s) : 2 channels
Channel positions : Front: L R
Sampling rate : 44.1 KHz
Frame rate : 43.066 fps (1024 spf)
Compression mode : Lossy
Stream size : 20.8 MiB (12%)
Default : Yes
Alternate group : 1


Релиз от: -merci-



   Похожие торренты   Торрент   Размер 
В этой теме нет новых непрочитанных сообщений. Майлз с другой планеты / Miles from Tomorrowland [01x01-20 из 29] (2015) WEBRip-AVC от -merci- | D

39 | 11

2.66 ГБ

В этой теме нет новых непрочитанных сообщений. Майлз с другой планеты / Miles from Tomorrowland [01x01-23,29 из 29 + бонусы] (2015) WEBRip-AVC от -merci- | D

41 | 9

3.93 ГБ

В этой теме нет новых непрочитанных сообщений. Майлз с другой планеты / Miles from Tomorrowland [01x01-23,29 из 29 + бонусы] (2015) WEBRip от -merci- | D

36 | 7

6.19 ГБ

В этой теме нет новых непрочитанных сообщений. Майлз с другой планеты / Miles from Tomorrowland [01x01-23,29 из 29 + бонусы] (2015) WEBRip от -merci- | D

41 | 32

6.65 ГБ

В этой теме нет новых непрочитанных сообщений. Майлз с другой планеты / Miles from Tomorrowland [01x01-23,29 из 29 + бонусы] (2015) WEBRip-AVC от -merci- | D

160 | 30

4.08 ГБ

В этой теме нет новых непрочитанных сообщений. Майлз с другой планеты / Miles from Tomorrowland [01x01-23,29 из 29 + бонусы] (2015) WEBRip от -merci- | D

102 | 31

6.87 ГБ

В этой теме нет новых непрочитанных сообщений. Майлз с другой планеты / Miles from Tomorrowland [01x01-23,29 из 29 + бонусы] (2015) WEBRip-AVC от -merci- | D

44 | 2

3.65 ГБ




Вы не можете начинать темы
Вы не можете отвечать на сообщения
Вы не можете редактировать свои сообщения
Вы не можете удалять свои сообщения
Вы не можете добавлять вложения

Перейти:  
Для Мосгорсуда, Роскомнадзора и рекламодателей: mosgorsud-torrent[собачка]yandex.ru
 Вход
ppkBB3cker v.2 © 2008-2014 @ PPK
[ Time : 0.035s | 15 Queries | GZIP : Off ]

Торрент трекер RUTOR.IN, Не можете зайти на rutor.org? Какой новый адрес рутор? Какое зеркало рутор? Не работает rutor.org и зеркала? Тогда наш торрент специально для вас. Rutor.in неофициальное зеркало rutor. В случае если у Вас заблокирован rutor или вдруг Вы не можете на него зайти, то Вы без труда сможете скачать бесплатно и без рекламы последние новинки кино, игр, сериалов и прочего у нас, на Rutor.in. Не нужно использовать прокси, чтобы зайти на рутор, достаточно воспользоваться нашим ресурсом. Все новые фильмы, игры, сериалы, книги и музыка за 2013 и 2014 годы через торрент бесплатно. Скачивайте фильмы в хорошем качестве, игры для пк, xbox, playstation без регистрации. У нас вы найдете новые Зарубежные сериалы и Русские сериалы 2013, 2014, 2015 годов. Оставайтесь с нами, качайте любимые фильмы, игры, сериалы, книги и музыку.