img image001 image001 image001 image001 image001 image001 image001 image001 image001 image001 image001 image001 image001 image001 image001

Planets Sun Sun Sun
Статистика раздачи
Автор: Nickolas3434 | Размер: 745.02 МБ | Добавлен: 21 мар 2016
Раздают: 130    Качают: 10
Скачать торрент
Скачать торрент
Описание торрента

СообщениеДобавлено: 21 мар 2016 


Информация о фильме
Название: Симпсоны в кино
Оригинальное название: The Simpsons Movie
Год выхода: 2007
Жанр: мультфильм, комедия, приключения
Режиссер: Дэвид Силверман
В ролях:
Джули Кавнер (Marge Simpson / Selma / Patty, озвучка), Ярдли Смит (Lisa, озвучка), Марсия Уоллес (Mrs. Krabappel, озвучка), Билли Джо Армстронг (Green Day, озвучка), Тре Кул (Green Day, озвучка), Майк Дирнт (Green Day, озвучка), Тресс МакНилл (Sweet Old Lady / Colin / Mrs. Skinner / Nelson's Mother / Pig / Cat Lady / Female EPA Worker / G.P.S. Woman / Cookie Kwan / Lindsey Naegle / TV S), Памела Хейден (Milhouse / Rod Flanders, озвучка)
Дублёры: Всеволод Кузнецов (Green Day), Владимир Ферапонтов (Grampa), Борис Быстров (Homer), Андрей Бархударов (Apu), Владимир Антоник (Rev. Lovejoy), Никита Прозоровский (Lou), Ольга Зубкова (Marge Simpson), Лариса Брохман (Bart), Ирина Гришина (Nelson), Елена Соловьева (Helen Lovejoy), Елена Чебатуркина (Lisa), Александр Клюквин (Kent Brockman)
О фильме:
После того, как Гомер сбросил отходы в водохранилище, Спрингфилд объявили карантинной зоной и накрыли гигантским стеклянным колпаком, а местные жители ополчились на Симпсонов за то, что их отрезали от остального мира…

Страна: США
Продолжительность: 01:26:44
Перевод: Дублированный
Файл
Кодек: XviD / MP3
Качество: HDRip
Видео: 720x304, 23.976 fps, XviD 1.2.2 (build 50) ~1063 kbps avg, 0.203 bit/pixel
Звук: 48 kHz, MPEG Layer 3, 2 ch, 128.00 kbps
General
Complete name : Симпсоны в кино.avi
Format : AVI
Format/Info : Audio Video Interleave
File size : 745 MiB
Duration : 1h 26mn
Overall bit rate : 1 201 Kbps
Writing application : VirtualDubMod 1.5.10.2 (build 2542/release)
Writing library : VirtualDubMod build 2542/release
Video
ID : 0
Format : MPEG-4 Visual
Format profile : Advanced Simple@L5
Format settings, BVOP : 2
Format settings, QPel : No
Format settings, GMC : No warppoints
Format settings, Matrix : Custom
Muxing mode : Packed bitstream
Codec ID : DX50
Codec ID/Hint : DivX 5
Duration : 1h 26mn
Bit rate : 1 063 Kbps
Width : 720 pixels
Height : 304 pixels
Display aspect ratio : 2.35:1
Frame rate : 23.976 fps
Color space : YUV
Chroma subsampling : 4:2:0
Bit depth : 8 bits
Scan type : Progressive
Compression mode : Lossy
Bits/(Pixel*Frame) : 0.203
Stream size : 660 MiB (89%)
Writing library : XviD 1.2.1 (UTC 2008-12-04)
Audio
ID : 1
Format : MPEG Audio
Format version : Version 1
Format profile : Layer 3
Mode : Joint stereo
Mode extension : MS Stereo
Codec ID : 55
Codec ID/Hint : MP3
Duration : 1h 26mn
Bit rate mode : Constant
Bit rate : 128 Kbps
Channel(s) : 2 channels
Sampling rate : 48.0 KHz
Compression mode : Lossy
Delay relative to video : 72ms
Stream size : 79.4 MiB (11%)
Alignment : Aligned on interleaves
Interleave, duration : 42 ms (1.00 video frame)
Interleave, preload duration : 504 ms
Writing library : LAME3.98



   Похожие торренты   Торрент   Размер 
В этой теме нет новых непрочитанных сообщений. Симпсоны в кино / The Simpsons Movie (2007) BDRip-AVC от RP4 CHG

32 | 22

701.32 МБ

В этой теме нет новых непрочитанных сообщений. Симпсоны в кино / The Simpsons Movie (2007) BDRemux 1080p

2 | 4

23.43 ГБ

В этой теме нет новых непрочитанных сообщений. Симпсоны в кино / Simpsons Movie, The (2007) BDRip от HELLYWOOD

199 | 73

1.69 ГБ

В этой теме нет новых непрочитанных сообщений. Симпсоны в кино / The Simpsons Movie (2007) BDRip от HQCLUB

22 | 36

1.72 ГБ

В этой теме нет новых непрочитанных сообщений. Симпсоны в кино / The Simpsons Movie (2007) BDRip-AVC от R.G. HD-Films | 60 fps

150 | 6

3.19 ГБ

В этой теме нет новых непрочитанных сообщений. Симпсоны в кино / The Simpsons Movie (2007) BDRip 720p

247 | 6

3.42 ГБ

В этой теме нет новых непрочитанных сообщений. Симпсоны в кино / The Simpsons Movie (2007) BDRip 1080p от NNNB

344 | 16

2.96 ГБ




Вы не можете начинать темы
Вы не можете отвечать на сообщения
Вы не можете редактировать свои сообщения
Вы не можете удалять свои сообщения
Вы не можете добавлять вложения

Перейти:  
Для Мосгорсуда, Роскомнадзора и рекламодателей: mosgorsud-torrent[собачка]yandex.ru
 Вход
ppkBB3cker v.2 © 2008-2014 @ PPK
[ Time : 0.043s | 14 Queries | GZIP : Off ]

Торрент трекер RUTOR.IN, Не можете зайти на rutor.org? Какой новый адрес рутор? Какое зеркало рутор? Не работает rutor.org и зеркала? Тогда наш торрент специально для вас. Rutor.in неофициальное зеркало rutor. В случае если у Вас заблокирован rutor или вдруг Вы не можете на него зайти, то Вы без труда сможете скачать бесплатно и без рекламы последние новинки кино, игр, сериалов и прочего у нас, на Rutor.in. Не нужно использовать прокси, чтобы зайти на рутор, достаточно воспользоваться нашим ресурсом. Все новые фильмы, игры, сериалы, книги и музыка за 2013 и 2014 годы через торрент бесплатно. Скачивайте фильмы в хорошем качестве, игры для пк, xbox, playstation без регистрации. У нас вы найдете новые Зарубежные сериалы и Русские сериалы 2013, 2014, 2015 годов. Оставайтесь с нами, качайте любимые фильмы, игры, сериалы, книги и музыку.