img image001 image001 image001 image001 image001 image001 image001 image001 image001 image001 image001 image001 image001 image001 image001

Planets Sun Sun Sun
Статистика раздачи
Автор: Nickolas3434 | Размер: 316.15 МБ | Добавлен: 25 мар 2016
Раздают: 940    Качают: 27
Скачать торрент
Скачать торрент
Описание торрента

СообщениеДобавлено: 25 мар 2016 


Страна: США
Жанр: короткометражка, боевик, комедия, приключения
Год выпуска: 2016
Продолжительность: 00:23:27


Перевод: Профессиональный (полное дублирование)
Режиссер: Рудольф Гуеноден / Rodolphe Guenoden
В ролях: Джек Блэк (Po, озвучка), Eliott Guenoden (Young Bunny / Young Pig, озвучка), Джеймс Хонг (Mr. Ping, озвучка), Дастин Хоффман (Shifu / Warrior, озвучка), Тара Макри (Young Tigress, озвучка), Рэндолл Дак Ким (Oogway, озвучка), Стивен Кеарин (Master Mongrel, озвучка), Джейден Ланд (Boar, озвучка), Джозеф Иззо (Palace Goose / Sheep, озвучка), Сет Роген (Mantis, озвучка), Джерри Кларк (Gorilla, озвучка), Дэвид Кросс (Crane, озвучка)


Описание: Тигрица, Змея, Обезьяна, Журавль и Богомол из обычных незнакомцев превращаются в легендарную Неистовую Пятерку Кунг-Фу.





Качество: WEB-DLRip
Контейнер: AVI
Видео: XviD, 720x400 (16:9), 1493 kbps, 23,976 fps, 0,216 bpp
Аудио: AC3 / 5.1 / 48 kHz / 384 kbps / 16 bit


Раздача от:

General
Complete name : E:Kung_fu.Panda.2016.by.NewTeam.avi
Format : AVI
Format/Info : Audio Video Interleave
File size : 316 MiB
Duration : 23mn 27s
Overall bit rate : 1 884 Kbps
Writing application : VirtualDubMod 1.5.10.3 | www.virtualdub-fr.org || (build 2550/release)
Writing library : VirtualDubMod build 2550/release
Video
ID : 0
Format : MPEG-4 Visual
Format profile : Advanced Simple@L5
Format settings, BVOP : 1
Format settings, QPel : No
Format settings, GMC : No warppoints
Format settings, Matrix : Custom
Codec ID : XVID
Codec ID/Hint : XviD
Duration : 23mn 27s
Bit rate : 1 494 Kbps
Width : 720 pixels
Height : 400 pixels
Display aspect ratio : 16:9
Frame rate : 23.976 fps
Color space : YUV
Chroma subsampling : 4:2:0
Bit depth : 8 bits
Scan type : Progressive
Compression mode : Lossy
Bits/(Pixel*Frame) : 0.216
Stream size : 251 MiB (79%)
Writing library : XviD 73
Audio
ID : 1
Format : AC-3
Format/Info : Audio Coding 3
Mode extension : CM (complete main)
Codec ID : 2000
Duration : 23mn 15s
Bit rate mode : Constant
Bit rate : 384 Kbps
Channel(s) : 6 channels
Channel positions : Front: L C R, Side: L R, LFE
Sampling rate : 48.0 KHz
Bit depth : 16 bits
Compression mode : Lossy
Stream size : 63.9 MiB (20%)
Alignment : Split accross interleaves
Interleave, duration : 42 ms (1.01 video frame)
Interleave, preload duration : 500 ms



   Похожие торренты   Торрент   Размер 
В этой теме нет новых непрочитанных сообщений. Кунг-Фу Панда: Загадки свитка / Kung Fu Panda: Secrets of the Scroll (2016) WEB-DL 1080p | D

296 | 7

948.85 МБ

В этой теме нет новых непрочитанных сообщений. Кунг-Фу Панда: Загадки свитка / Kung Fu Panda: Secrets of the Scroll (2016) WEBRip 720p | D

2022 | 92

762.05 МБ

В этой теме нет новых непрочитанных сообщений. Кунг-Фу Панда: Загадки свитка / Kung Fu Panda: Secrets of the Scroll (2016) WEB-DLRip-AVC от ExKinoRay | iTunes Russia

639 | 24

545.9 МБ

В этой теме нет новых непрочитанных сообщений. Кунг-Фу Панда: Секреты мастеров / Kung Fu Panda: Secrets of the Masters (2011) DVDRip-AVC | L

20 | 4

300.26 МБ

В этой теме нет новых непрочитанных сообщений. Кунг-Фу Панда: Секреты мастеров / Kung Fu Panda: Secrets of the Masters (2011) DVDRip

54 | 7

471.73 МБ

В этой теме нет новых непрочитанных сообщений. Кунг-фу Панда 3 / Kung Fu Panda 3 (2016) BDRip-AVC от New-Team | Лицензия

175 | 7

1.46 ГБ

В этой теме нет новых непрочитанных сообщений. Кунг-фу Панда: Секреты неистовой пятерки / Kung Fu Panda: Secrets of the Furious Five (2008) DVDRip

236 | 6

352.03 МБ




Вы не можете начинать темы
Вы не можете отвечать на сообщения
Вы не можете редактировать свои сообщения
Вы не можете удалять свои сообщения
Вы не можете добавлять вложения

Перейти:  
Для Мосгорсуда, Роскомнадзора и рекламодателей: mosgorsud-torrent[собачка]yandex.ru
 Вход
ppkBB3cker v.2 © 2008-2014 @ PPK
[ Time : 0.020s | 14 Queries | GZIP : Off ]

Торрент трекер RUTOR.IN, Не можете зайти на rutor.org? Какой новый адрес рутор? Какое зеркало рутор? Не работает rutor.org и зеркала? Тогда наш торрент специально для вас. Rutor.in неофициальное зеркало rutor. В случае если у Вас заблокирован rutor или вдруг Вы не можете на него зайти, то Вы без труда сможете скачать бесплатно и без рекламы последние новинки кино, игр, сериалов и прочего у нас, на Rutor.in. Не нужно использовать прокси, чтобы зайти на рутор, достаточно воспользоваться нашим ресурсом. Все новые фильмы, игры, сериалы, книги и музыка за 2013 и 2014 годы через торрент бесплатно. Скачивайте фильмы в хорошем качестве, игры для пк, xbox, playstation без регистрации. У нас вы найдете новые Зарубежные сериалы и Русские сериалы 2013, 2014, 2015 годов. Оставайтесь с нами, качайте любимые фильмы, игры, сериалы, книги и музыку.