img image001 image001 image001 image001 image001 image001 image001 image001 image001 image001 image001 image001 image001 image001 image001

Planets Sun Sun Sun
Статистика раздачи
Автор: Nickolas3434 | Размер: 18.62 ГБ | Добавлен: 25 мар 2016
Раздают: 41    Качают: 8
Скачать торрент
Скачать торрент
Описание торрента

СообщениеДобавлено: 25 мар 2016 

Информация о фильме
Название: Майлз с другой планеты (Майлз с планеты будущего)
Оригинальное название: Miles from Tomorrowland
Год выхода: 2015
Страна: США, Disney
Жанр: мультфильм, фантастика, приключения, семейный
Продолжительность: 20 x ~ 00:24:05
Перевод: Профессиональный (дублированный)
Режиссеры: Пол Димайер, Сью Перротто, Джон Энг, ...
Роли озвучивали: Оливия Манн, Каллен МакКарти, Фиона Бишоп, Ди Брэдли Бейкер, Том Кенни, Грэй Гриффин, Дидрих Бадер, Дэнни Джейкобс, Сэм Лаваньино, Этан Вакер, ...
Роли дублировали: Елена Шульман, Владимир Войтюк, Василиса Эльдарова, Алексей Черных, Анна Киселева, ...
О фильме:
Знакомьтесь с юным любителем приключений Майлзом Каллисто и его необычной семьей! Мама парнишки — пилот космического корабля, папа — инженер-механик, а старшая сестра — настоящая всезнайка в области различных технологий. Вместе с ними и домашним питомцем, роботом-страусом Мёрком, Майлз путешествует по просторам вселенной и исследует неизведанные миры. В эпизодах познавательного мультсериала юных телезрителей ждут удивительные открытия!
1 сезон (США):
01 эпизод - 6 февраля 2015
29 эпизод - 4 декабря 2015
s1e01. Сбежавший шаттл + Катание в водовороте / Runaway Shuttle + Surfin' the Whirlpool
s1e02. Океан в движении + Обмен Исследователей / Ocean in Motion + Explorer Exchange
s1e03. Сыграем + Как я спас свои летние каникулы / Game On + How I Saved My Summer Vacation
s1e04. Путешествие на Ледяную планету + Атака фликораксов / Journey to the Frozen Planet + Attack of the Flickorax
s1e05. Поймай биту! + Супер-Мёрк / Catch That IOTA! + Mighty Merc
s1e06. Кто украл Стеллосферу + Игра в мяч / Who Stole the Stellosphere? + Rock N' Roll
s1e07. С днём капитана + Планета растений / Happy Captain's Day + Planet of the Plants
s1e08. Уменьшенные + Катание с кварконами / Downsized + Ride of the Quarkons
s1e09. В зону Златовласки + Заминка в плане / To the Goldilocks Zone + Hiccup in the Plan
s1e10. Полиция начеку + Захватчик корабля / On Spaceguard + Spaceship Invader
s1e11. Приключения с домашними роботами + Погоня за бластбордом / Adventures in Robo-Pet Sitting + The Great Blastboard Chase
s1e12. Отключенные + Замусоренные / Unplugged + Junked
s1e13. Мама-Мёрк + Космическая гонка / Mama Merc + Space Race
s1e14. Приключения на Нептуне + Глаза в глаза / The Neptune Adventure + Eye to Eye
s1e15. День Юрия + Я, Стелла / Yuri's Night + I, Stella
s1e16. Замороженная еда + Пока, мультилифт / Frozen Food + Later, Multivator
s1e17. Лунный Новый Год + Дневники ховербайкера / Lunar New Year + The Hoverbike Diaries
s1e18. Поиск Скеллинга Ро + Вид под угрозой / The Search for Skellig Ro + Endangered Species
s1e19. Взрыв астероида + Магнитный Мёрк / Blasteroid + Magnetic Merc
s1e20. Растущая проблема + Приключения тихоходки / A Growing Problem + The Tardigrade Escapade



Доп. информация: Оригинальный видеоряд (USA). Эпизоды длиннее на 1 мин. относительно русской версии
Официальный сайт / Семпл


Файл
Формат: MKV
Качество: WEB-DL 1080p
Видео: MPEG4-AVC, [email protected], 1920x1080 (16:9), ~ 5 144 Kbps, 23.976 fps
Звук #1: 48.0 KHz, AC3 2.0, 192 Kbps (Русский - дубляж Disney)
Звук #2: 48.0 KHz, AC3 2.0, 192 Kbps (Английский - оригинал)
Субтитры: английские
s1e15. День Юрия + Я, Стелла. WEB-DL.1080p.-merci-.mkv
Format : Matroska
Format version : Version 2
File size : 972 MiB
Duration : 24mn 5s
Overall bit rate : 5 640 Kbps
Movie name : Майлз с другой планеты / Miles from Tomorrowland / -merci-
Encoded date : UTC 2016-03-24 13:12:09
Writing application : mkvmerge v5.8.0 ('No Sleep / Pillow') built on Sep 2 2012 15:37:04
Writing library : libebml v1.2.3 + libmatroska v1.3.0
Video
ID : 1
Format : AVC
Format/Info : Advanced Video Codec
Format profile : High@L4
Format settings, CABAC : Yes
Format settings, ReFrames : 4 frames
Codec ID : V_MPEG4/ISO/AVC
Duration : 24mn 5s
Bit rate : 5 144 Kbps
Width : 1 920 pixels
Height : 1 080 pixels
Display aspect ratio : 16:9
Frame rate mode : Constant
Frame rate : 23.976 (24000/1001) fps
Color space : YUV
Chroma subsampling : 4:2:0
Bit depth : 8 bits
Scan type : Progressive
Bits/(Pixel*Frame) : 0.103
Stream size : 886 MiB (91%)
Title : 15. Yuri's Night + I, Stella. WEB-DL.1080p.x264.-merci-
Language : English
Default : Yes
Forced : No
Color range : Limited
Color primaries : BT.709
Transfer characteristics : BT.709
Matrix coefficients : BT.709
Audio #1
ID : 2
Format : AC-3
Format/Info : Audio Coding 3
Mode extension : CM (complete main)
Format settings, Endianness : Big
Codec ID : A_AC3
Duration : 24mn 5s
Bit rate mode : Constant
Bit rate : 192 Kbps
Channel(s) : 2 channels
Channel positions : Front: L R
Sampling rate : 48.0 KHz
Frame rate : 31.250 fps (1536 spf)
Compression mode : Lossy
Stream size : 33.1 MiB (3%)
Title : Dub
Language : Russian
Default : Yes
Forced : No
Audio #2
ID : 3
Format : AC-3
Format/Info : Audio Coding 3
Mode extension : CM (complete main)
Format settings, Endianness : Big
Codec ID : A_AC3
Duration : 24mn 5s
Bit rate mode : Constant
Bit rate : 192 Kbps
Channel(s) : 2 channels
Channel positions : Front: L R
Sampling rate : 48.0 KHz
Frame rate : 31.250 fps (1536 spf)
Compression mode : Lossy
Stream size : 33.1 MiB (3%)
Title : Orig
Language : English
Default : No
Forced : No
Text
ID : 4
Format : UTF-8
Codec ID : S_TEXT/UTF8
Codec ID/Info : UTF-8 Plain Text
Title : eng
Language : English
Default : No
Forced : No


Релиз от: -merci-



   Похожие торренты   Торрент   Размер 
В этой теме нет новых непрочитанных сообщений. Майлз с другой планеты / Miles from Tomorrowland [01x01-20 из 29] (2015) WEBRip-AVC от -merci- | D

39 | 11

2.66 ГБ

В этой теме нет новых непрочитанных сообщений. Майлз с другой планеты / Miles from Tomorrowland [01x01-18 из ?] (2015) WEBRip-AVC от -merci- | D

72 | 23

2.3 ГБ

В этой теме нет новых непрочитанных сообщений. Майлз с другой планеты / Miles from Tomorrowland [01x01-23,29 из 29 + бонусы] (2015) WEBRip от -merci- | D

41 | 32

6.65 ГБ

В этой теме нет новых непрочитанных сообщений. Майлз с другой планеты / Miles from Tomorrowland [01x01-23,29 из 29 + бонусы] (2015) WEBRip-AVC от -merci- | D

160 | 30

4.08 ГБ

В этой теме нет новых непрочитанных сообщений. Майлз с другой планеты / Miles from Tomorrowland [01x01-23,29 из 29 + бонусы] (2015) WEBRip от -merci- | D

102 | 31

6.87 ГБ

В этой теме нет новых непрочитанных сообщений. Майлз с другой планеты / Miles from Tomorrowland [01x01-23,29 из 29 + бонусы] (2015) WEBRip от -merci- | D

23 | 10

5.52 ГБ

В этой теме нет новых непрочитанных сообщений. Майлз с другой планеты / Miles from Tomorrowland [01x01-23,29 из 29 + бонусы] (2015) WEBRip-AVC от -merci- | D

56 | 16

3.28 ГБ




Вы не можете начинать темы
Вы не можете отвечать на сообщения
Вы не можете редактировать свои сообщения
Вы не можете удалять свои сообщения
Вы не можете добавлять вложения

Перейти:  
Для Мосгорсуда, Роскомнадзора и рекламодателей: mosgorsud-torrent[собачка]yandex.ru
 Вход
ppkBB3cker v.2 © 2008-2014 @ PPK
[ Time : 0.036s | 16 Queries | GZIP : Off ]

Торрент трекер RUTOR.IN, Не можете зайти на rutor.org? Какой новый адрес рутор? Какое зеркало рутор? Не работает rutor.org и зеркала? Тогда наш торрент специально для вас. Rutor.in неофициальное зеркало rutor. В случае если у Вас заблокирован rutor или вдруг Вы не можете на него зайти, то Вы без труда сможете скачать бесплатно и без рекламы последние новинки кино, игр, сериалов и прочего у нас, на Rutor.in. Не нужно использовать прокси, чтобы зайти на рутор, достаточно воспользоваться нашим ресурсом. Все новые фильмы, игры, сериалы, книги и музыка за 2013 и 2014 годы через торрент бесплатно. Скачивайте фильмы в хорошем качестве, игры для пк, xbox, playstation без регистрации. У нас вы найдете новые Зарубежные сериалы и Русские сериалы 2013, 2014, 2015 годов. Оставайтесь с нами, качайте любимые фильмы, игры, сериалы, книги и музыку.
cron