img image001 image001 image001 image001 image001 image001 image001 image001 image001 image001 image001 image001 image001 image001 image001

Planets Sun Sun Sun
Статистика раздачи
Автор: Nickolas3434 | Размер: 1.84 ГБ | Добавлен: 25 мар 2016
Раздают: 128    Качают: 20
Скачать торрент
Скачать торрент
Описание торрента

СообщениеДобавлено: 25 мар 2016 

Информация о фильме
Название: Маша и Медведь. Машкины страшилки
Год выхода: 2014-2016
Жанр: Мультсериал, детский, приключения, комедия
Страна: Россия
Студия: Студия "Анимаккорд"
Продолжительность: 11 x ~ 00:05:41
Перевод: не требуется
Режиссер: Олег Ужинов, Денис Червяцов, Олег Кузовков
В ролях: Алина Кукушкина
О фильме:
Новый проект студии "Анимаккорд" - "Машкины страшилки"... Все дети боятся темноты. Маша раньше тоже так её боялась, что приходилось ей по ночам с фонариком сидеть! Но однажды Маша придумала сказочку про маленького лесного жучка, который тоже боялся темноты... Трепещите! Маша взялась за новый жанр - теперь она рассказывает страшилки!
01. Душераздирающая повесть о тёмном лесе и маленьком жучке.
02. Жутко-страшное предание о том, как один мальчик боялся умываться.
03. Чудовищная быль о том, как некоторые боятся чудовищ
04. Тревожный сказ о потерявшемся котёнке
05. Кошмарное поверие о новогодних стишках
06. Мрачная притча о суеверной девочке
07. Угрюмый завет о сопливом мальчике
08. О Девочке, которая боялась зверушек
09. Ужасающая история про бабушку и внучка
10. Полный отчаяния миф об исторической ошибке
11. Панически невыносимая легенда о букашках

Файл
Формат: MKV
Качество: WEB-DL 720p
Видео: MPEG-4 AVC, [email protected], 1280x720 (16:9), ~ 3 930 kbps, 25,000 fps
Звук: 48.0 KHz, AC3 2.0, 192 kbps
Субтитры: нет
10. Полный отчаяния миф об исторической ошибке. WEB-DL.720p.x264.-merci-.mkv
Format : Matroska
Format version : Version 2
File size : 171 MiB
Duration : 5mn 40s
Overall bit rate : 4 206 Kbps
Movie name : Машкины Страшилки / 2014-2015 / Россия. "Анимаккорд"
Encoded date : UTC 2016-01-30 15:52:47
Writing application : mkvmerge v5.8.0 ('No Sleep / Pillow') built on Sep 2 2012 15:37:04
Writing library : libebml v1.2.3 + libmatroska v1.3.0
Video
ID : 1
Format : AVC
Format/Info : Advanced Video Codec
Format profile : High@L3.1
Format settings, CABAC : Yes
Format settings, ReFrames : 2 frames
Codec ID : V_MPEG4/ISO/AVC
Duration : 5mn 40s
Bit rate : 3 930 Kbps
Width : 1 280 pixels
Height : 720 pixels
Display aspect ratio : 16:9
Frame rate mode : Constant
Frame rate : 25.000 fps
Color space : YUV
Chroma subsampling : 4:2:0
Bit depth : 8 bits
Scan type : Progressive
Bits/(Pixel*Frame) : 0.171
Stream size : 159 MiB (93%)
Title : 10. Полный отчаяния миф об исторической ошибке. WEB-DL.720p.x264.-merci-
Language : Russian
Default : Yes
Forced : No
Color range : Limited
Color primaries : BT.709
Transfer characteristics : BT.709
Matrix coefficients : BT.709
Audio
ID : 2
Format : AC-3
Format/Info : Audio Coding 3
Mode extension : CM (complete main)
Format settings, Endianness : Big
Codec ID : A_AC3
Duration : 5mn 40s
Bit rate mode : Constant
Bit rate : 192 Kbps
Channel(s) : 2 channels
Channel positions : Front: L R
Sampling rate : 48.0 KHz
Compression mode : Lossy
Stream size : 7.79 MiB (5%)
Title : rus
Language : Russian
Default : Yes
Forced : No


Релиз от: -merci-



   Похожие торренты   Торрент   Размер 
В этой теме нет новых непрочитанных сообщений. Маша и Медведь. Машкины страшилки [01x01-10] (2014-2016) WEB-DL 720p от -merci-

279 | 35

1.67 ГБ

В этой теме нет новых непрочитанных сообщений. Маша и Медведь. Машкины страшилки [01x01-11] (2014-2016) WEB-DL 1080p от -merci-

90 | 19

2.28 ГБ

В этой теме нет новых непрочитанных сообщений. Маша и Медведь. Машкины страшилки [01x01-10] (2014-2016) WEB-DL 1080p от -merci-

199 | 48

2.07 ГБ

В этой теме нет новых непрочитанных сообщений. Маша и Медведь. Машкины страшилки [01x01-11] (2014-2016) DVDRip, WEB-DLRip от -merci-

109 | 22

985.78 МБ

В этой теме нет новых непрочитанных сообщений. Маша и Медведь. Машкины страшилки [01-02] (2014) DVDRip

2958 | 66

180.03 МБ

В этой теме нет новых непрочитанных сообщений. Маша и Медведь. Машкины страшилки [01-02] (2014) DVDRip-AVC от ExKinoRay

661 | 18

163.16 МБ

В этой теме нет новых непрочитанных сообщений. Маша и Медведь. Машкины страшилки (S01x01-04) / 2014-2015 / WEB-DL 1080p

349 | 23

850.71 МБ




Вы не можете начинать темы
Вы не можете отвечать на сообщения
Вы не можете редактировать свои сообщения
Вы не можете удалять свои сообщения
Вы не можете добавлять вложения

Перейти:  
Для Мосгорсуда, Роскомнадзора и рекламодателей: mosgorsud-torrent[собачка]yandex.ru
 Вход
ppkBB3cker v.2 © 2008-2014 @ PPK
[ Time : 0.548s | 17 Queries | GZIP : Off ]

Торрент трекер RUTOR.IN, Не можете зайти на rutor.org? Какой новый адрес рутор? Какое зеркало рутор? Не работает rutor.org и зеркала? Тогда наш торрент специально для вас. Rutor.in неофициальное зеркало rutor. В случае если у Вас заблокирован rutor или вдруг Вы не можете на него зайти, то Вы без труда сможете скачать бесплатно и без рекламы последние новинки кино, игр, сериалов и прочего у нас, на Rutor.in. Не нужно использовать прокси, чтобы зайти на рутор, достаточно воспользоваться нашим ресурсом. Все новые фильмы, игры, сериалы, книги и музыка за 2013 и 2014 годы через торрент бесплатно. Скачивайте фильмы в хорошем качестве, игры для пк, xbox, playstation без регистрации. У нас вы найдете новые Зарубежные сериалы и Русские сериалы 2013, 2014, 2015 годов. Оставайтесь с нами, качайте любимые фильмы, игры, сериалы, книги и музыку.