img image001 image001 image001 image001 image001 image001 image001 image001 image001 image001 image001 image001 image001 image001 image001

Planets Sun Sun Sun
Статистика раздачи
Автор: Nickolas3434 | Размер: 985.78 МБ | Добавлен: 25 мар 2016
Раздают: 99    Качают: 19
Скачать торрент
Скачать торрент
Описание торрента

СообщениеДобавлено: 25 мар 2016 

Информация о фильме
Название: Маша и Медведь. Машкины страшилки
Год выхода: 2014-2016
Жанр: Мультсериал, детский, приключения, комедия
Страна: Россия
Студия: Студия "Анимаккорд"
Продолжительность: 11 x ~ 00:05:41
Перевод: не требуется
Режиссер: Олег Ужинов, Денис Червяцов, Олег Кузовков
В ролях: Алина Кукушкина
О фильме:
Новый проект студии "Анимаккорд" - "Машкины страшилки"... Все дети боятся темноты. Маша раньше тоже так её боялась, что приходилось ей по ночам с фонариком сидеть! Но однажды Маша придумала сказочку про маленького лесного жучка, который тоже боялся темноты... Трепещите! Маша взялась за новый жанр - теперь она рассказывает страшилки!
01. Душераздирающая повесть о тёмном лесе и маленьком жучке.
02. Жутко-страшное предание о том, как один мальчик боялся умываться.
03. Чудовищная быль о том, как некоторые боятся чудовищ
04. Тревожный сказ о потерявшемся котёнке
05. Кошмарное поверие о новогодних стишках
06. Мрачная притча о суеверной девочке
07. Угрюмый завет о сопливом мальчике
08. О Девочке, которая боялась зверушек
09. Ужасающая история про бабушку и внучка
10. Полный отчаяния миф об исторической ошибке
11. Панически невыносимая легенда о букашках

Файл
Формат видео: AVI
Качество видео: DVDRip, WEB-DLRip
Видео: 720x400 (1.80:1), 25 fps, XviD build 65 ~2006 kbps avg, 0.28 bit/pixel
Аудио: 48 kHz, AC3 Dolby Digital, 2/0 (L,R) ch, ~192.00 kbps avg
Субтитры: нет
06. О суеверной девочке. XviD.-merci-.avi
Format : AVI
Format/Info : Audio Video Interleave
File size : 89.4 MiB
Duration : 5mn 39s
Overall bit rate : 2 209 Kbps
Writing application : VirtualDubMod 1.5.10.3 | www.virtualdub-fr.org || (build 2550/release)
Writing library : VirtualDubMod build 2550/release
Video
ID : 0
Format : MPEG-4 Visual
Format profile : Advanced Simple@L5
Format settings, BVOP : 1
Format settings, QPel : No
Format settings, GMC : No warppoints
Format settings, Matrix : Default (MPEG)
Codec ID : XVID
Codec ID/Hint : XviD
Duration : 5mn 39s
Bit rate : 2 007 Kbps
Width : 720 pixels
Height : 400 pixels
Display aspect ratio : 16:9
Frame rate : 25.000 fps
Color space : YUV
Chroma subsampling : 4:2:0
Bit depth : 8 bits
Scan type : Progressive
Compression mode : Lossy
Bits/(Pixel*Frame) : 0.279
Stream size : 81.3 MiB (91%)
Writing library : XviD 65
Audio
ID : 1
Format : AC-3
Format/Info : Audio Coding 3
Mode extension : CM (complete main)
Format settings, Endianness : Big
Codec ID : 2000
Duration : 5mn 39s
Bit rate mode : Constant
Bit rate : 192 Kbps
Channel(s) : 2 channels
Channel positions : Front: L R
Sampling rate : 48.0 KHz
Frame rate : 31.250 fps (1536 spf)
Compression mode : Lossy
Stream size : 7.77 MiB (9%)
Alignment : Split accross interleaves
Interleave, duration : 40 ms (1.00 video frame)
Interleave, preload duratio : 500 ms


Релиз от: -merci-



   Похожие торренты   Торрент   Размер 
В этой теме нет новых непрочитанных сообщений. Маша и Медведь. Машкины страшилки [01x01-11] (2014-2016) WEB-DL 1080p от -merci-

70 | 18

2.28 ГБ

В этой теме нет новых непрочитанных сообщений. Маша и Медведь. Машкины страшилки [01x01-11] (2014-2016) WEB-DL 720p от -merci-

96 | 18

1.84 ГБ

В этой теме нет новых непрочитанных сообщений. Маша и Медведь. Машкины страшилки [01x01-10] (2014-2016) WEB-DL 1080p от -merci-

199 | 48

2.07 ГБ

В этой теме нет новых непрочитанных сообщений. Маша и Медведь. Машкины страшилки [01x01-10] (2014-2016) WEB-DL 720p от -merci-

279 | 35

1.67 ГБ

В этой теме нет новых непрочитанных сообщений. Маша и Медведь. Машкины страшилки [01-09] (2014-2015) DVDRip-AVC, WEB-DLRip-AVC от ExKinoRay

1011 | 67

809.81 МБ

В этой теме нет новых непрочитанных сообщений. Маша и Медведь. Машкины страшилки [01-19] (2014-2017) DVDRip, WEB-DLRip от ExKinoRay

9 | 1

1.67 ГБ

В этой теме нет новых непрочитанных сообщений. Маша и медведь+Машкини срашилки. / Маша и медведь+Машкины страшилки [1-61, 1-17] (2009-2017) BDRip, WEB-DLRip

40 | 14

12.62 ГБ




Вы не можете начинать темы
Вы не можете отвечать на сообщения
Вы не можете редактировать свои сообщения
Вы не можете удалять свои сообщения
Вы не можете добавлять вложения

Перейти:  
Для Мосгорсуда, Роскомнадзора и рекламодателей: mosgorsud-torrent[собачка]yandex.ru
 Вход
ppkBB3cker v.2 © 2008-2014 @ PPK
[ Time : 0.053s | 18 Queries | GZIP : Off ]

Торрент трекер RUTOR.IN, Не можете зайти на rutor.org? Какой новый адрес рутор? Какое зеркало рутор? Не работает rutor.org и зеркала? Тогда наш торрент специально для вас. Rutor.in неофициальное зеркало rutor. В случае если у Вас заблокирован rutor или вдруг Вы не можете на него зайти, то Вы без труда сможете скачать бесплатно и без рекламы последние новинки кино, игр, сериалов и прочего у нас, на Rutor.in. Не нужно использовать прокси, чтобы зайти на рутор, достаточно воспользоваться нашим ресурсом. Все новые фильмы, игры, сериалы, книги и музыка за 2013 и 2014 годы через торрент бесплатно. Скачивайте фильмы в хорошем качестве, игры для пк, xbox, playstation без регистрации. У нас вы найдете новые Зарубежные сериалы и Русские сериалы 2013, 2014, 2015 годов. Оставайтесь с нами, качайте любимые фильмы, игры, сериалы, книги и музыку.
cron