img image001 image001 image001 image001 image001 image001 image001 image001 image001 image001 image001 image001 image001 image001 image001

Planets Sun Sun Sun
Статистика раздачи
Автор: Nickolas3434 | Размер: 1.46 ГБ | Добавлен: 25 мар 2016
Раздают: 1079    Качают: 51
Скачать торрент
Скачать торрент
Описание торрента

СообщениеДобавлено: 25 мар 2016 


Производство: Китай, Beijing Weiyingshidai Culture & Media, Hengdian Chinese Film Production Co., October Animation Studio
Жанр: Приключения, Компьютерная анимация
Режиссер: Тиан Сяо Пенг
В ролях: Никки Брайар, Федор Чин, Ника Футтерман, Джеймс Хонг, Дэвид С. Юнг
Описание:
Всемогущий Король Обезьян однажды прогневил богов и был заключен ими в ледяную бездну среди Мраморных гор. Спустя 500 лет маленький мальчик случайно снимает заклятие и освобождает героя.
Теперь Короля ждет новое испытание: ему предстоит сразиться с Кровожадным Драконом. Сможет ли великий герой, владевший магией и кунг-фу, спасти людей и победить Могучего Дракона?

Дата мировой премьеры: 10.07.2015
Дата премьеры в России: 19.03.2016, «Top Film Distribution»
Возраст: 6+ (зрителям, достигшим 6 лет)
Релиз от: K.E.N (NNM-CLUB)
Продолжительность: 01:25:18
Качество видео: WEB-DLRip
Перевод: Многоголосый закадровый, любительский
Озвучка / Автор перевода: проект AniDub
Язык субтитров: Китайский, английский
Вид субтитров: Вшитые неотключаемые
Видео: 720x304 (2.37:1), 25 fps, XviD build 73 ~2242 kbps avg, 0.41 bit/pixel
Аудио: 48 kHz, AC3 Dolby Digital, 2/0 (L,R) ch, ~192 kbps
Формат : AVI
Формат/Информация : Audio Video Interleave
Размер файла : 1,46 Гбайт
Продолжительность : 1 ч. 25 м.
Общий поток : 2445 Кбит/сек
Программа кодирования : VirtualDubMod 1.5.10.3 | www.virtualdub-fr.org || (build 2550/release)
Библиотека кодирования : VirtualDubMod build 2550/release
Видео
Идентификатор : 0
Формат : MPEG-4 Visual
Профиль формата : Advanced Simple@L5
Параметр BVOP формата : 1
Параметр QPel формата : Нет
Параметр GMC формата : Без точки перехода
Параметр матрицы формата : Выборочная
Идентификатор кодека : XVID
Идентификатор кодека/Подсказка : XviD
Продолжительность : 1 ч. 25 м.
Битрейт : 2243 Кбит/сек
Ширина : 720 пикселей
Высота : 304 пикселя
Соотношение сторон : 2,35:1
Частота кадров : 25,000 кадров/сек
Цветовое пространство : YUV
Субдискретизация насыщенности : 4:2:0
Битовая глубина : 8 бит
Тип развёртки : Прогрессивная
Метод сжатия : С потерями
Бит/(Пиксели*Кадры) : 0.410
Размер потока : 1,34 Гбайт (92%)
Библиотека кодирования : XviD 73
Аудио
Идентификатор : 1
Формат : AC-3
Формат/Информация : Audio Coding 3
Расширение режима : CM (complete main)
Параметр Endianness формата : Big
Идентификатор кодека : 2000
Продолжительность : 1 ч. 25 м.
Вид битрейта : Постоянный
Битрейт : 192 Кбит/сек
Каналы : 2 канала
Расположение каналов : Front: L R
Частота : 48,0 КГц
Битовая глубина : 16 бит
Метод сжатия : С потерями
Размер потока : 117 Мбайт (8%)
Выравнивание : Разделение по промежуткам
Продолжительность промежутка : 40 мс. (1,00 видеокадр)
Время предзагрузки промежутка : 500 мс.

Скриншоты:



   Похожие торренты   Торрент   Размер 
В этой теме нет новых непрочитанных сообщений. Король обезьян: Возвращение Героя / Xi you ji zhi da sheng gui lai (2015) WEB-DLRip от Twi7ter | Line

1073 | 43

1.46 ГБ

В этой теме нет новых непрочитанных сообщений. Король обезьян / Xi You Ji Zhi Da Sheng gui lai (2015) WEB-DL 1080p

1508 | 38

1.79 ГБ

В этой теме нет новых непрочитанных сообщений. Царь обезьян: Начало легенды / Король обезьян 2 / Xi you ji zhi: Sun Wukong san da Baigu Jing (2016) HDRip от torrentfilm | L2

2049 | 109

1.46 ГБ

В этой теме нет новых непрочитанных сообщений. Царь обезьян: Начало легенды / Король обезьян 2 / Xi you ji zhi: Sun Wukong san da Baigu Jing (2016) HDRip от torrentfilm | L2

148 | 9

748.83 МБ

В этой теме нет новых непрочитанных сообщений. Король обезьян / Царь Обезьян / The Monkey King / Xi you ji: Da nao tian gong (2014) HDRip-AVC от BTT-TEAM и SOUND-GROUP

62 | 7

2.18 ГБ

В этой теме нет новых непрочитанных сообщений. Король обезьян / The Monkey King (2014) HDRip | L1

1695 | 344

2.05 ГБ

В этой теме нет новых непрочитанных сообщений. Король обезьян / The Monkey King (2014) HDRip | L1

919 | 347

1.46 ГБ




Вы не можете начинать темы
Вы не можете отвечать на сообщения
Вы не можете редактировать свои сообщения
Вы не можете удалять свои сообщения
Вы не можете добавлять вложения

Перейти:  
Для Мосгорсуда, Роскомнадзора и рекламодателей: mosgorsud-torrent[собачка]yandex.ru
 Вход
ppkBB3cker v.2 © 2008-2014 @ PPK
[ Time : 0.043s | 14 Queries | GZIP : Off ]

Торрент трекер RUTOR.IN, Не можете зайти на rutor.org? Какой новый адрес рутор? Какое зеркало рутор? Не работает rutor.org и зеркала? Тогда наш торрент специально для вас. Rutor.in неофициальное зеркало rutor. В случае если у Вас заблокирован rutor или вдруг Вы не можете на него зайти, то Вы без труда сможете скачать бесплатно и без рекламы последние новинки кино, игр, сериалов и прочего у нас, на Rutor.in. Не нужно использовать прокси, чтобы зайти на рутор, достаточно воспользоваться нашим ресурсом. Все новые фильмы, игры, сериалы, книги и музыка за 2013 и 2014 годы через торрент бесплатно. Скачивайте фильмы в хорошем качестве, игры для пк, xbox, playstation без регистрации. У нас вы найдете новые Зарубежные сериалы и Русские сериалы 2013, 2014, 2015 годов. Оставайтесь с нами, качайте любимые фильмы, игры, сериалы, книги и музыку.