img image001 image001 image001 image001 image001 image001 image001 image001 image001 image001 image001 image001 image001 image001 image001

Planets Sun Sun Sun
Статистика раздачи
Автор: Nickolas3434 | Размер: 4.27 ГБ | Добавлен: 26 мар 2016
Раздают: 171    Качают: 85
Скачать торрент
Скачать торрент
Описание торрента

СообщениеДобавлено: 26 мар 2016 

Информация о фильме
Название: Новаторы
Год выхода: 2011-2015
Страна: Россия, Кристмас Филмз
Жанр: мультфильм, фантастика, приключения
Продолжительность: 54x ~ 00:06:30
Перевод: не требуется
Режиссер: Алексей Штыхин
В ролях: Лариса Брохман, Ольга Шорохова, Дмитрий Филимонов
О фильме:
Познавательный мультсериал о путешествиях во времени четверки друзей, один из которых прибыл из космоса. Однажды на головы, то есть на чердак, школьников Фила и Наны, брата и сестры, свалился инопланетянин. Летающая тарелка сломалась, и галактический гость должен был совершить экстренную посадку. Ребята пытаются помочь Нео починить его аппарат и предлагают в качестве источника запчастей старый холодильник.
Вместо того, чтобы отремонтировать корабль, Нео сооружает из холодильника машину времени. Прихватив с собой Теслика, ручного хомячка, ребята отправляются в путешествие во времени. В увлекательнейших странствиях по разным эпохам друзей ждут новые открытия, знакомства, опасности и трудности, выход из которых путешественникам помогут найти реальные, запатентованные изобретения российских умельцев и ученых.
s1e01. Странные гости старого чердака
s1e02. Такие полезные кляксы
s1e03. Операция «Чистые Руки»
s1e04. Холодильник времени
s1e05. Маска ледникового периода
s1e06. Волшебная сила бурной воды
s1e07. Сокровища запотевшей бутыли
s1e08. Зубная магия
s1e09. Когда закрываются банки
s1e10. Приключение с огоньком
s1e11. За призраком с фонарем
s1e12. Дым каменного века
s1e13. Царская ёлка
s1e14. Энергия морских приливов
s1e15. Как надуть противника
s1e16. Чудо-топливо
s1e17. Подводное сафари
s1e18. Кладоискатели
s1e19. Палатка гавайского плаксы
s2e01. Будильник для Рима
s2e02. Конек-Горбунок с мотором
s2e03. Чистое дело
s2e04. В гостях у Леонардо
s2e05. Прыжки по воде
s2e06. Марафонский полет
s2307. Будильник для Рима (на китайском языке)
s2e08. Парк культуры Юрского периода
s2e09. Экзоскелет
s2e10. SOS в пиратских водах
s2e11. Лопата для Геракла
s2e12. Азбука спасения
s2e13. Дельтакат - миссия выполнима
s2e14. Зажигательные гонки
s2e15. Безопасная горка
s2e16. Пикник с археоптериксом
s2e17. Японская кухня
s2e18. Как прокормить Робинзона
s2e19. Тарелка над Версалем
s2e20. Волшебная палочка-навигатор
s2e21. Честь королям
s2e22. Новый год по африканскому стилю
s2e23. Как стать звездой
s2e24. Верхом на звезде
s2e25. Как напечатать автомобиль
s3e01. Геоглифы Наски
s3e02. Шаман Морок
s3e03. Прививки
s3e04. Таблица Менделеева
s3e05. Изобретение стекла
s3e06. Таблица Менделеева
s3e07. Лампочка
s3e08. Бумага
s3e09. Боги бетона
s3e10. Компас

Доп. информация:
Официальный сайт / Семпл


Файл
Формат: MP4
Качество: WEBRip 720p
Видео: AVC, [email protected], 1280x720 (16:9), ~ 2 147 Kbps, 25.000 fps
Звук: 44.1 KHz, AAC-LC 2.0, 192 Kbps
Субтитры: нет
s2e21. Честь королям. HD-merci-.mp4
Format : MPEG-4
Format profile : Base Media / Version 2
Codec ID : mp42 (isom/mp42)
File size : 109 MiB
Duration : 6mn 30s
Overall bit rate mode : Variable
Overall bit rate : 2 342 Kbps
Encoded date : UTC 2015-04-20 11:11:45
Tagged date : UTC 2015-04-20 11:11:45
gsst : 0
gstd : 390048
gssd : BBC2B4545MM1440177131877000
gshh : r2---sn-ug5onuxaxjvh-v8cl.googlevideo.com
Video
ID : 1
Format : AVC
Format/Info : Advanced Video Codec
Format profile : High@L3.1
Format settings, CABAC : Yes
Format settings, ReFrames : 1 frame
Codec ID : avc1
Codec ID/Info : Advanced Video Coding
Duration : 6mn 30s
Bit rate : 2 147 Kbps
Maximum bit rate : 7 866 Kbps
Width : 1 280 pixels
Height : 720 pixels
Display aspect ratio : 16:9
Frame rate mode : Constant
Frame rate : 25.000 fps
Color space : YUV
Chroma subsampling : 4:2:0
Bit depth : 8 bits
Scan type : Progressive
Bits/(Pixel*Frame) : 0.093
Stream size : 99.8 MiB (92%)
Encoded date : UTC 1970-01-01 00:00:00
Tagged date : UTC 2015-04-20 11:11:48
Audio
ID : 2
Format : AAC
Format/Info : Advanced Audio Codec
Format profile : LC
Codec ID : 40
Duration : 6mn 30s
Bit rate mode : Variable
Bit rate : 192 Kbps
Maximum bit rate : 202 Kbps
Channel(s) : 2 channels
Channel positions : Front: L R
Sampling rate : 44.1 KHz
Frame rate : 43.066 fps (1024 spf)
Compression mode : Lossy
Stream size : 8.93 MiB (8%)
Title : IsoMedia File Produced by Google, 5-11-2011
Language : English
Encoded date : UTC 2015-04-20 11:11:47
Tagged date : UTC 2015-04-20 11:11:48


Релиз от: -merci-



   Похожие торренты   Торрент   Размер 
В этой теме нет новых непрочитанных сообщений. Рыбология / Fish Hooks [01-03x01-59 из ?] (2010) WEBRip-AVC от -merci- | D

3 | 4

6.16 ГБ

В этой теме нет новых непрочитанных сообщений. Барбоскины [01-09x001-160 из ?] (2011-2016) WEBRip 720p от -merci-

424 | 91

9.67 ГБ

В этой теме нет новых непрочитанных сообщений. Барбоскины [01-09x001-159 из ?] (2011-2016) WEBRip 720p от -merci-

87 | 49

9.6 ГБ

В этой теме нет новых непрочитанных сообщений. Барбоскины [01-09x001-161 из ?] (2011-2016) WEBRip 720p от -merci-

236 | 254

9.73 ГБ

В этой теме нет новых непрочитанных сообщений. Бумажки [01-27] (2015) WEBRip 720p от -merci-

271 | 11

1.77 ГБ

В этой теме нет новых непрочитанных сообщений. Малышарики [01-15 из ?] (2015) WEBRip 720p от -merci-

420 | 10

639.33 МБ

В этой теме нет новых непрочитанных сообщений. Бумажки [01-30] (2015) WEBRip 720p от -merci-

101 | 8

1.98 ГБ




Вы не можете начинать темы
Вы не можете отвечать на сообщения
Вы не можете редактировать свои сообщения
Вы не можете удалять свои сообщения
Вы не можете добавлять вложения

Перейти:  
Для Мосгорсуда, Роскомнадзора и рекламодателей: mosgorsud-torrent[собачка]yandex.ru
 Вход
ppkBB3cker v.2 © 2008-2014 @ PPK
[ Time : 0.072s | 16 Queries | GZIP : Off ]

Торрент трекер RUTOR.IN, Не можете зайти на rutor.org? Какой новый адрес рутор? Какое зеркало рутор? Не работает rutor.org и зеркала? Тогда наш торрент специально для вас. Rutor.in неофициальное зеркало rutor. В случае если у Вас заблокирован rutor или вдруг Вы не можете на него зайти, то Вы без труда сможете скачать бесплатно и без рекламы последние новинки кино, игр, сериалов и прочего у нас, на Rutor.in. Не нужно использовать прокси, чтобы зайти на рутор, достаточно воспользоваться нашим ресурсом. Все новые фильмы, игры, сериалы, книги и музыка за 2013 и 2014 годы через торрент бесплатно. Скачивайте фильмы в хорошем качестве, игры для пк, xbox, playstation без регистрации. У нас вы найдете новые Зарубежные сериалы и Русские сериалы 2013, 2014, 2015 годов. Оставайтесь с нами, качайте любимые фильмы, игры, сериалы, книги и музыку.
cron