img image001 image001 image001 image001 image001 image001 image001 image001 image001 image001 image001 image001 image001 image001 image001 image001

Planets Sun Sun Sun
Статистика раздачи
Автор: Nickolas3434 | Размер: 744.49 МБ | Добавлен: 26 мар 2016
Раздают: 1073    Качают: 16
Скачать торрент
Скачать торрент
Описание торрента

СообщениеДобавлено: 26 мар 2016 


Информация о фильме
Название: Снежная битва
Оригинальное название: Snowtime! / La guerre des tuques
Год выхода: 2015
Жанр: Мультфильм
Режиссер: Жан-Франсуа Пуле/Jean-François Pouliot, Франсуа Бриссон/François Brisson
В ролях: Анджела Галуппо, Марилуп Вульф, Люсинда Дэвис, Николас Савард-Хербер, Софи Кадьо, Энн Касабонн, Хелен Буржуа Леклерк, Росс Линч, Катрин Трюдо, Жильдор Руа
О фильме:
Чтобы развлечься во время зимних каникул, детвора из маленькой деревни решает устроить грандиозное снежное побоище между двумя командами.

Страна: Канада
Студия: Studio Singing Frog Inc, Carpediem Film & TV
Продолжительность: 01:22:21
Перевод: Профессиональный (полное дублирование)
Файл
Кодек: XviD
Качество: HDRip
Видео: 688x288 (2.39:1), 23.976 fps, XviD build 73 ~1126 kbps avg, 0.24 bit/pixel
Звук: 48 kHz, MPEG Layer 3, 2 ch, ~128.00 kbps avg
Субтитры: Отсутствует
Семпл
General
Complete name : D:Изготовление рипаSnowtime (2015).HDRip by shkiper.avi
Format : AVI
Format/Info : Audio Video Interleave
File size : 744 MiB
Duration : 1h 22mn
Overall bit rate : 1 264 Kbps
Writing application : VirtualDubMod 1.5.10.3 | www.virtualdub-fr.org || (build 2550/release)
Writing library : VirtualDubMod build 2550/release
Video
ID : 0
Format : MPEG-4 Visual
Format profile : Advanced [email protected]
Format settings, BVOP : 1
Format settings, QPel : No
Format settings, GMC : No warppoints
Format settings, Matrix : Custom
Codec ID : XVID
Codec ID/Hint : XviD
Duration : 1h 22mn
Bit rate : 1 127 Kbps
Width : 688 pixels
Height : 288 pixels
Display aspect ratio : 2.40:1
Frame rate : 23.976 (23976/1000) fps
Color space : YUV
Chroma subsampling : 4:2:0
Bit depth : 8 bits
Scan type : Progressive
Compression mode : Lossy
Bits/(Pixel*Frame) : 0.237
Stream size : 664 MiB (89%)
Writing library : XviD 73
Audio
ID : 1
Format : MPEG Audio
Format version : Version 1
Format profile : Layer 3
Codec ID : 55
Codec ID/Hint : MP3
Duration : 1h 22mn
Bit rate mode : Constant
Bit rate : 128 Kbps
Channel(s) : 2 channels
Sampling rate : 48.0 KHz
Compression mode : Lossy
Stream size : 75.4 MiB (10%)
Alignment : Aligned on interleaves
Interleave, duration : 42 ms (1.00 video frame)
Interleave, preload duratio : 504 ms
Writing library : LAME3.99r
Encoding settings : -m s -V 4 -q 2 -lowpass 17 -b 128

Релиз от:



   Похожие торренты   Торрент   Размер 
В этой теме нет новых непрочитанных сообщений. Снежная битва / La guerre des tuques 3D (2015) BDRip от Twi7ter | D | Line

514 | 53

1.46 ГБ

В этой теме нет новых непрочитанных сообщений. Снежная битва / La guerre des tuques 3D (2015) WEBRip | Чистый звук

7225 | 281

1.37 ГБ

В этой теме нет новых непрочитанных сообщений. Снежная битва / La guerre des tuques 3D (2015) BDRip от Twi7ter | iTunes

1021 | 14

1.42 ГБ

В этой теме нет новых непрочитанных сообщений. Снежная битва / La guerre des tuques 3D (2015) WEBRip-AVC | Чистый звук

1120 | 31

1.46 ГБ

В этой теме нет новых непрочитанных сообщений. Снежная битва / La guerre des tuques 3D (2015) WEBRip от New-Team | D | Чистый звук

1032 | 84

743.16 МБ

В этой теме нет новых непрочитанных сообщений. Снежная битва / La guerre des tuques 3D (2015) BDRip 1080р от SuperMin | D | iTunes

324 | 20

3.31 ГБ

В этой теме нет новых непрочитанных сообщений. Снежная битва / La guerre des tuques 3D (2015) WEBRip 720p | Чистый звук

3234 | 115

2.64 ГБ




Вы не можете начинать темы
Вы не можете отвечать на сообщения
Вы не можете редактировать свои сообщения
Вы не можете удалять свои сообщения
Вы не можете добавлять вложения

Перейти:  
 Вход
ppkBB3cker v.2 © 2008-2014 @ PPK
[ Time : 0.044s | 15 Queries | GZIP : Off ]

cron