img image001 image001 image001 image001 image001 image001 image001 image001 image001 image001 image001 image001 image001 image001 image001

Planets Sun Sun Sun
Статистика раздачи
Автор: Nickolas3434 | Размер: 266.69 МБ | Добавлен: 28 мар 2016
Раздают: 34    Качают: 1
Скачать торрент
Скачать торрент
Описание торрента

СообщениеДобавлено: 28 мар 2016 

Информация о фильме:
● Название: Команда «Мстители» (Мстители, общий сбор)
● Оригинальное название: Marvel's Avengers Assemble
● Год выхода: 2013
● Страна: США
● Студия: Man of Action Studios; Marvel Animation
● Жанр: мультфильм, приключения, фэнтези, фантастика, боевик
● Режиссер: Джефф Аллен, Тим Элдред, Эрик Радомски
● В ролях: Адриан Пасдар, Роджер Крэйг Смит, Фред Татаскьор, Трэвис Уиллингэм, Трой Бэйкер, Бампер Робинсон, Лора Бэйли, Дэвид Кэй, Лайам О’Брайэн
● Продолжительность: 1 х 00:22:03
● Перевод: любительский многоголосный

Описание фильма:
Сериал воссоединит самую популярную команду супергероев: Железный Человек, Халк, Капитан Америка, Тор, Соколиный Глаз, Черная Вдова, а также новичок Сокол. Впервые в истории анимации команда соберется в таком составе. Ведомые Железным Человеком, герои тренируются и живут вместе в своей новой штаб-квартире в Башне Мстителей. Самый опасные злодеи планеты не имеют ни единого шанса, когда речь идет о Мстителях. Остановить Доктора Дума или отвоевать Асгард, защитить Нью-Йорк от армии Аттумы или победить вампиров Дракулы — Мстители должны работать в команде, чтобы победить.

Информация о файле:
● Кодек: AVC
● Формат: MP4
● Качество: WEB-DLRip 720p
● Видео: 1280x720, 23.976 fps, MPEG-4 AVC ~ 1500 kbps
● Аудио: 44,1 kHz, AAC, 2/0 (L,R) ch, ~ 165 kbps

Релиз от:

01. Adapting to Change
Перевод на русский: Yellow Tree
Озвучено: New Records
Текст читали: Евгений Леонов,Владимир Добин,Леонид Макаров, Дмитрий Савкин и Ариса Лебедева
Формат видео: MP4 PS3 or XBOX360, x264 Q21 HQ
Общее
Полное имя : D:SHAgroupNewcartoon_eng_seriesMarvel's Avengers Assemble. 2013. s03. mp4 1280x720s03e01. Adapting to Change.mp4
Формат : MPEG-4
Профиль формата : Base Media
Идентификатор кодека : isom
Размер файла : 267 Мбайт
Продолжительность : 22 м.
Режим общего битрейта : Переменный
Общий поток : 1690 Кбит/сек
Дата кодирования : UTC 2016-03-27 17:17:05
Дата пометки : UTC 2016-03-27 17:17:05
Видео
Идентификатор : 1
Формат : AVC
Формат/Информация : Advanced Video Codec
Профиль формата : High@L4.1
Параметр CABAC формата : Да
Параметр ReFrames формата : 4 кадра
Идентификатор кодека : avc1
Идентификатор кодека/Информация : Advanced Video Coding
Продолжительность : 22 м.
Битрейт : 1539 Кбит/сек
Максимальный битрейт : 6233 Кбит/сек
Ширина : 1280 пикселей
Высота : 720 пикселей
Соотношение сторон : 16:9
Режим частоты кадров : Постоянный
Частота кадров : 23,976 кадра/сек
Цветовое пространство : YUV
Субдискретизация насыщенности : 4:2:0
Битовая глубина : 8 бит
Тип развёртки : Прогрессивная
Бит/(Пиксели*Кадры) : 0.070
Размер потока : 243 Мбайт (91%)
Библиотека кодирования : x264 core 130 r2273 b3065e6
Настройки программы : cabac=1 / ref=3 / deblock=1:0:0 / analyse=0x3:0x113 / me=umh / subme=7 / psy=1 / psy_rd=1.00:0.00 / mixed_ref=1 / me_range=12 / chroma_me=1 / trellis=2 / 8x8dct=1 / cqm=0 / deadzone=21,11 / fast_pskip=1 / chroma_qp_offset=-2 / threads=3 / lookahead_threads=1 / sliced_threads=0 / nr=0 / decimate=1 / interlaced=0 / bluray_compat=0 / constrained_intra=0 / bframes=3 / b_pyramid=2 / b_adapt=2 / b_bias=0 / direct=3 / weightb=1 / open_gop=0 / weightp=2 / keyint=250 / keyint_min=23 / scenecut=40 / intra_refresh=0 / rc_lookahead=60 / rc=crf / mbtree=1 / crf=21.0 / qcomp=0.50 / qpmin=0 / qpmax=69 / qpstep=4 / vbv_maxrate=24000 / vbv_bufsize=24000 / crf_max=0.0 / nal_hrd=none / ip_ratio=1.10 / aq=1:1.00
Дата кодирования : UTC 2016-03-27 17:17:05
Дата пометки : UTC 2016-03-27 17:17:22
Аудио
Идентификатор : 2
Формат : AAC
Формат/Информация : Advanced Audio Codec
Профиль формата : LC
Идентификатор кодека : 40
Продолжительность : 22 м.
Вид битрейта : Переменный
Битрейт : 147 Кбит/сек
Максимальный битрейт : 188 Кбит/сек
Каналы : 2 канала
Расположение каналов : Front: L R
Частота : 44,1 КГц
Метод сжатия : С потерями
Размер потока : 23,2 Мбайт (9%)
Дата кодирования : UTC 2016-03-27 17:17:20
Дата пометки : UTC 2016-03-27 17:17:22
Когда раздача ведётся путём добавления новых серий, при каждом добавлении создётся новый торрент. Чтобы начать докачку новой серии, пользователям необходимо сделать следующее:
(1) остановить скачивание,
(2) удалить старый торрент у себя из клиента (старые серии удалять не надо),
(3) скачать новый торрент и запустить его у себя в клиенте вместо старого, при этом указать клиенту путь в старую папку, куда и должно происходить скачивание новых серий.
Ваш клиент при этом должен произвести хеширование (проверку) старой папки (если не производит сам - помогите ему сделать это), и будет докачивать только те серии, которых у вас ещё нет. Старые серии при этом не удаляются, а продолжают раздаваться!
Eсли вы уже удалили старые серии, то предотвратить повторную закачку старых серий можно, отжав галочку в соответсвующих местах при запуске нового торрента. По возможности, желательно не удалять старые серии как можно дольше, чтобы релизёр не столько продолжал раздавать старые серии, а смог сконцентрироваться на новых.



   Похожие торренты   Торрент   Размер 
В этой теме нет новых непрочитанных сообщений. Команда «Мстители» / Мстители, общий сбор / Marvel's Avengers Assemble [S01] (2013) WEB-DLRip | L1, L

341 | 65

7.31 ГБ

В этой теме нет новых непрочитанных сообщений. Команда «Мстители» / Marvel's Avengers Assemble [S01] (2013) WEB-DLRip | D, L, L1

183 | 10

7.32 ГБ

В этой теме нет новых непрочитанных сообщений. Команда «Мстители» / Marvel's Avengers Assemble [S01] (2013) WEB-DLRip | D

282 | 69

7.32 ГБ

В этой теме нет новых непрочитанных сообщений. Команда «Мстители» / Marvel's Avengers Assemble [s01-02] (2013-2015) WEB-DLRip | D, L1

173 | 314

14.54 ГБ

В этой теме нет новых непрочитанных сообщений. Команда «Мстители» (Мстители, общий сбор) / Marvel's Avengers Assemble [02x01-13] (2014) WEB-DLRip | L1

391 | 26

3.62 ГБ

В этой теме нет новых непрочитанных сообщений. Команда «Мстители» (Мстители, общий сбор) / Marvel's Avengers Assemble [02x01-17] (2014) WEB-DLRip | L1

62 | 16

4.46 ГБ

В этой теме нет новых непрочитанных сообщений. Команда «Мстители» / Marvel's Avengers Assemble [s02] (2014) WEB-DLRip | L1

271 | 40

7.22 ГБ




Вы не можете начинать темы
Вы не можете отвечать на сообщения
Вы не можете редактировать свои сообщения
Вы не можете удалять свои сообщения
Вы не можете добавлять вложения

Перейти:  
Для Мосгорсуда, Роскомнадзора и рекламодателей: mosgorsud-torrent[собачка]yandex.ru
 Вход
ppkBB3cker v.2 © 2008-2014 @ PPK
[ Time : 0.041s | 16 Queries | GZIP : Off ]

cron