img image001 image001 image001 image001 image001 image001 image001 image001 image001 image001 image001 image001 image001 image001 image001

Planets Sun Sun Sun
Статистика раздачи
Автор: Nickolas3434 | Размер: 9.64 ГБ | Добавлен: 30 мар 2016
Раздают: 11    Качают: 6
Скачать торрент
Скачать торрент
Описание торрента

СообщениеДобавлено: 30 мар 2016 

Информация о фильме
Название: Три Фу Том
Оригинальное название: Tree Fu Tom
Год выхода: 2012
Выпущено: Великобритания, CBeebies In House Production, Fremantle Media Enterprises, Blue-Zoo Productions
Жанр: Мультсериал, детский, семейный, приключения
Продолжительность: 26 X ~ 00:21:30
Перевод: Профессиональный дублированный (Карусель)
Режиссеры: Адам Шоу, Китти Тейлор, Дермот Кентербери
Роли озвучивали: Тим Уайтнэлл, Софи Алдред, Саманта Дэкин, Дэвид Теннант, Люсьен Додж, Шэрон Д. Кларк, Адам Хендерсон
Роли дублировали: Виктор Бакин, Иван Непомнящий, Елена Шульман, Анастасия Лапина, Антон Савенков, ...
О фильме:
Восьмилетний Том сделал ошеломляющее открытие! Оказывается, внутри ствола одного из деревьев, что растёт недалеко от его дома в лесу, разместился целый мир. Том получает возможность оказаться в этом магическом мире и познакомиться с его жителями — диковинными маленькими существами из леса. Этот волшебный мир превращает простого мальчишку в супергероя! Маленькие зрители непременно подружатся с Томом и вместе с ним отправятся в увлекательное приключение в заколдованное царство, населённое удивительными жителями.
Сезон 1 (5 марта - 28 декабря 2012)
01. Победу лучшей ягоде! / May The Best Berry Win
02. Поиски Сквизла / Squizzle Quest
03. Зигзу ноль / Zigzoo the Zero
04. Пока, новички! / So Long Greenhorns!
05. Прятки со спасением / Hide and Squeak
06. Всё, что захотите / Wishful Thinking
07. Робот Зигзу / Zigzoo's Robot
08. С такими друзьями! / With Friends Like These
09. Стоит дружить с теми, кто жужжит / Buzzworthy
10. Окрылённость / Winging It
11. Кристальная катастрофа / Crystal Catastrophe
12. Грязные игры / Fungus Among Us
13. Большие скачки на ранчо / The Big Ranch Rodeo
14. Один за всех / One for All!
15. Том и трюфели / Treefle Tom
16. Потрясающее приключение / The Great Journey
17. Не так быстро! / Not So Fast
18. Парящие жуки / Hovering Humblebugs
19. Охота за сокровищами / Treasure Hunt
20. Ошибка Тома / Tom's Big Mess
21. День живицы / Sappy day
22. Прожорливая напасть / Grubble Trouble
23. Спасение Рикети / Rickety Rescue
24. На вкус и цвет / Weather Brother
25. Том лилипут / Tiny Tom
26. Потерянный энергокамень / The Lost Stone



Доп. информация:
Семпл


Файл
Формат: MP4
Качество: WEBRip 1080p
Видео: MPEG4-AVC, [email protected], 1920x720 (16:9), ~ 2 441 Kbps, 25.000 fps
Звук: 44.1 KHz, AAC-LC 2.0, 192 Kbps
Субтитры: нет
09. Стоит дружить с тем кто жужжит. Full-HD-merci-.mp4
Format : MPEG-4
Format profile : Base Media
Codec ID : isom (isom)
File size : 402 MiB
Duration : 21mn 19s
Overall bit rate mode : Variable
Overall bit rate : 2 636 Kbps
Encoded date : UTC 2016-03-28 12:29:03
Tagged date : UTC 2016-03-28 12:29:03
Writing application : My MP4Box GUI 0.6.0.6
Video
ID : 1
Format : AVC
Format/Info : Advanced Video Codec
Format profile : High@L4
Format settings, CABAC : Yes
Format settings, ReFrames : 3 frames
Codec ID : avc1
Codec ID/Info : Advanced Video Coding
Duration : 21mn 19s
Bit rate : 2 441 Kbps
Maximum bit rate : 7 479 Kbps
Width : 1 920 pixels
Height : 1 080 pixels
Display aspect ratio : 16:9
Frame rate mode : Constant
Frame rate : 25.000 fps
Color space : YUV
Chroma subsampling : 4:2:0
Bit depth : 8 bits
Scan type : Progressive
Bits/(Pixel*Frame) : 0.047
Stream size : 372 MiB (93%)
Title : 09-1080.mp4
Encoded date : UTC 2015-12-24 10:00:07
Tagged date : UTC 2016-03-28 12:29:15
Color range : Limited
Color primaries : BT.709
Transfer characteristics : BT.709
Matrix coefficients : BT.709
Audio
ID : 2
Format : AAC
Format/Info : Advanced Audio Codec
Format profile : LC
Codec ID : 40
Duration : 21mn 19s
Bit rate mode : Variable
Bit rate : 192 Kbps
Maximum bit rate : 206 Kbps
Channel(s) : 2 channels
Channel positions : Front: L R
Sampling rate : 44.1 KHz
Frame rate : 43.066 fps (1024 spf)
Compression mode : Lossy
Stream size : 29.3 MiB (7%)
Title : 09-ru.aac
Encoded date : UTC 2016-03-28 12:29:12
Tagged date : UTC 2016-03-28 12:29:15


Релиз от: -merci-



   Похожие торренты   Торрент   Размер 
В этой теме нет новых непрочитанных сообщений. Три Фу Том / Tree Fu Tom [S01] (2012) WEBRip 720p от -merci-

79 | 24

8.02 ГБ

В этой теме нет новых непрочитанных сообщений. Медведи-соседи 2 / Boonie Bears or Bust [s02] (2012) WEBRip 1080p от -merci- | D

39 | 21

21.08 ГБ

В этой теме нет новых непрочитанных сообщений. Малышарики [01-15 из ?] (2015) WEBRip 1080p от -merci-

213 | 7

983.63 МБ

В этой теме нет новых непрочитанных сообщений. Малышарики [01-20 из ?] (2015-2016) WEBRip 1080p от -merci-

55 | 2

1.49 ГБ

В этой теме нет новых непрочитанных сообщений. Малышарики [01-19 из ?] (2015-2016) WEBRip 1080p от -merci-

40 | 5

1.3 ГБ

В этой теме нет новых непрочитанных сообщений. Малышарики [01-18 из ?] (2015-2016) WEBRip 1080p от -merci-

69 | 2

1.21 ГБ

В этой теме нет новых непрочитанных сообщений. Катя и Мим-Мим / Kate and Mim-Mim [01-36 из 52] (2014) WEBRip 1080p от -merci- | D

1 | 129

6.78 ГБ




Вы не можете начинать темы
Вы не можете отвечать на сообщения
Вы не можете редактировать свои сообщения
Вы не можете удалять свои сообщения
Вы не можете добавлять вложения

Перейти:  
Для Мосгорсуда, Роскомнадзора и рекламодателей: mosgorsud-torrent[собачка]yandex.ru
 Вход
ppkBB3cker v.2 © 2008-2014 @ PPK
[ Time : 0.063s | 16 Queries | GZIP : Off ]

Торрент трекер RUTOR.IN, Не можете зайти на rutor.org? Какой новый адрес рутор? Какое зеркало рутор? Не работает rutor.org и зеркала? Тогда наш торрент специально для вас. Rutor.in неофициальное зеркало rutor. В случае если у Вас заблокирован rutor или вдруг Вы не можете на него зайти, то Вы без труда сможете скачать бесплатно и без рекламы последние новинки кино, игр, сериалов и прочего у нас, на Rutor.in. Не нужно использовать прокси, чтобы зайти на рутор, достаточно воспользоваться нашим ресурсом. Все новые фильмы, игры, сериалы, книги и музыка за 2013 и 2014 годы через торрент бесплатно. Скачивайте фильмы в хорошем качестве, игры для пк, xbox, playstation без регистрации. У нас вы найдете новые Зарубежные сериалы и Русские сериалы 2013, 2014, 2015 годов. Оставайтесь с нами, качайте любимые фильмы, игры, сериалы, книги и музыку.